Скачать через торрент музыку David Bowie - Greatest Hits бесплатно без регистрации torrent

Если у вас наблюдаются проблемы со скриншотами, переходом по ссылками, скачиванием торрентов - проблемы в блокировщике рекламы AdBlock. #хорошегоДня!


Статистика раздачи
Размер:  2.14 GB   |    Зарегистрирован:  5 лет 4 месяца   |    .torrent скачан:  43 раза   |   
Раздают:  1  
   
Загрузка...
 
Автор Сообщение

Umakiro

avatar Umakiro


David Bowie / Greatest Hits (4CD) - 2010

Жанр: Rock, glam rock, art rock, pop
Страна-производитель диска: Россия
Год издания: 2010
Издатель (лейбл): ООО "СМАРТ"
Номер по каталогу: 26013-1/2
Страна: UK
Аудиокодек: FLAC (*.flac)
Тип рипа: image+.cue
Битрейт аудио: lossless
Продолжительность: 05:17:55
Источник (релизер): galaxy / supchik71
Наличие сканов в содержимом раздачи: да
David Bowie - Greatest Hits Part1 CD1
01. Space Oddity (5:15)
02. Starman (4:18)
03. Ziggy Stardust (3:17)
04. Moonage Daydrea (4:37)
05. Five Year (4:41)
06. Black Country Rock (3:33)
07. Hang on to Yourself (2:39)
08. Let's Spend The Night Together (3:08)
09. Suffragette City (3:29)
10. The Jean Genie (4:09)
11. Changes (3:35)
12. Aladdin Sane (5:10)
13. Velvet Goldmine (3:12)
14. The Man Who Sold The World (3:56)
15. Oh! You Pretty Things (3:14)
16. Drive-In Saturday (4:30)
17. Sorrow (2:55)
18. The Prettiest Star (3:15)
19. Life On Mars (3:52)
20. Rock 'N' Roll Suicide (3:00)
21. All The Young Dudes (4:12)

David Bowie - Greatest Hits Part1 CD2
01. John, I'm Only Dancing (2:45)
02. Rebel Rebel (4:33)
03. Diamond Dogs (6:08)
04. Young Americans (3:18)
05. Sound And Vision (3:08)
06. Golden Years (3:31)
07. Can You Hear Me (5:09)
08. Wild Is The Wind (6:03)
09. Knock On Wood (3:02)
10. TVC 15 (3:36)
11. 1984 (3:31)
12. It's Hard To Be A Saint In The City (3:51)
13. Look Back In Anger (3:11)
14. John, I'm Only Dancing (Again) (7:02)
15. The Secret Life Of Arabia (3:50)
16. DJ (4:05)
17. Beauty And The Beast (3:38)
18. Breaking Glass (1:56)
19. Boys Keep Swinging (3:23)
20. Heroes (3:33)
  
CUERipper v2.1.4 Copyright (C) 2008-12 Grigory ChudovExtraction logfile from : 06/28/2012 20:18:00Used drive : PIONEER - DVD-RW DVR-112DRead offset correction : 48Read command : BEh, 12h, BEh, 16 blocks at a timeSecure mode : 1Disk length : 79:56:72AccurateRip : disk not present in database

TOC of the extracted CD

Track | Start | Length | Start sector | End sector --------------------------------------------------------- 1 | 0:00.00 | 5:15.08 | 0 | 23632 2 | 5:15.08 | 4:18.15 | 23633 | 42997 3 | 9:33.23 | 3:16.52 | 42998 | 57749 4 | 12:50.00 | 4:37.00 | 57750 | 78524 5 | 17:27.00 | 4:41.21 | 78525 | 99620 6 | 22:08.21 | 3:32.67 | 99621 | 115587 7 | 25:41.13 | 2:38.63 | 115588 | 127500 8 | 28:20.01 | 3:07.60 | 127501 | 141585 9 | 31:27.61 | 3:29.07 | 141586 | 157267 10 | 34:56.68 | 4:08.67 | 157268 | 175934 11 | 39:05.60 | 3:34.47 | 175935 | 192031 12 | 42:40.32 | 5:10.12 | 192032 | 215293 13 | 47:50.44 | 3:11.70 | 215294 | 229688 14 | 51:02.39 | 3:56.15 | 229689 | 247403 15 | 54:58.54 | 3:14.28 | 247404 | 261981 16 | 58:13.07 | 4:29.57 | 261982 | 282213 17 | 62:42.64 | 2:55.13 | 282214 | 295351 18 | 65:38.02 | 3:14.47 | 295352 | 309948 19 | 68:52.49 | 3:52.13 | 309949 | 327361 20 | 72:44.62 | 3:00.23 | 327362 | 340884 21 | 75:45.10 | 4:11.62 | 340885 | 359771

Track | Pregap | Indexes --------------------------------------------------------- 1 | 00:02:00 | 1 2 | 00:00:00 | 1 3 | 00:00:00 | 1 4 | 00:00:00 | 1 5 | 00:00:00 | 1 6 | 00:00:00 | 1 7 | 00:00:00 | 1 8 | 00:00:00 | 1 9 | 00:00:00 | 1 10 | 00:00:00 | 1 11 | 00:00:00 | 1 12 | 00:00:00 | 1 13 | 00:00:00 | 1 14 | 00:00:00 | 1 15 | 00:00:00 | 1 16 | 00:00:00 | 1 17 | 00:00:00 | 1 18 | 00:00:00 | 1 19 | 00:00:00 | 1 20 | 00:00:00 | 1 21 | 00:00:00 | 1

Destination files C:\Users\Администратор\Music\David Bowie\2010 - Greatest Hits Part1 CD1\David Bowie - Greatest Hits Part1 CD1.flac

[CTDB TOCID: gV9VUEUrr6BqnsatWsOZZVTg.zk-] disk not present in database.

AccurateRip summary

[AccurateRip ID: 003e4aa4-03afd2cd-3912bc15] disk not present in database.

Track Peak [ CRC32 ] [W/O NULL] -- 100.0 [3B63964C] [B18A8852] 01 100.0 [F38645EF] [78CF5348] 02 100.0 [62632437] [446842C5] 03 100.0 [7C61BABF] [949B19DF] 04 100.0 [A85866FF] [8E5A0FF4] 05 100.0 [6453E80B] [DAC7FD8A] 06 95.7 [5385C008] [435C9BCE] 07 100.0 [9EDA1CA5] [82650B85] 08 100.0 [BF31A490] [94747EC3] 09 100.0 [129FCBD9] [70D24635] 10 90.9 [EED3D814] [408C10C8] 11 100.0 [C44181E9] [054AEA57] 12 100.0 [1963175E] [E6AAB394] 13 98.9 [FC6B1E09] [CB365F3B] 14 100.0 [BC963AA7] [07840384] 15 100.0 [5A5FA643] [86BE3528] 16 100.0 [389D9F5B] [857EEFEA] 17 100.0 [688E5CB3] [3ABE4EEA] 18 98.9 [40D933DC] [C94E9630] 19 100.0 [46C3E98A] [87715963] 20 100.0 [7F396A65] [7D872E06] 21 100.0 [E759FBD8] [10C34EB5]

End of status report
  
CUERipper v2.1.4 Copyright (C) 2008-12 Grigory ChudovExtraction logfile from : 06/28/2012 20:54:13Used drive : PIONEER - DVD-RW DVR-112DRead offset correction : 48Read command : BEh, 12h, BEh, 16 blocks at a timeSecure mode : 1Disk length : 79:14:13AccurateRip : disk not present in database

TOC of the extracted CD

Track | Start | Length | Start sector | End sector --------------------------------------------------------- 1 | 0:00.00 | 2:44.58 | 0 | 12357 2 | 2:44.58 | 4:32.50 | 12358 | 32807 3 | 7:17.33 | 6:07.68 | 32808 | 60400 4 | 13:25.26 | 3:17.65 | 60401 | 75240 5 | 16:43.16 | 3:07.52 | 75241 | 89317 6 | 19:50.68 | 3:31.28 | 89318 | 105170 7 | 23:22.21 | 5:09.28 | 105171 | 128373 8 | 28:31.49 | 6:02.57 | 128374 | 155580 9 | 34:34.31 | 3:02.23 | 155581 | 169253 10 | 37:36.54 | 3:36.32 | 169254 | 185485 11 | 41:13.11 | 3:31.28 | 185486 | 201338 12 | 44:44.39 | 3:51.27 | 201339 | 218690 13 | 48:35.66 | 3:10.55 | 218691 | 232995 14 | 51:46.46 | 7:02.02 | 232996 | 264647 15 | 58:48.48 | 3:50.30 | 264648 | 281927 16 | 62:39.03 | 4:04.65 | 281928 | 300292 17 | 66:43.68 | 3:38.08 | 300293 | 316650 18 | 70:22.01 | 1:55.67 | 316651 | 325342 19 | 72:17.68 | 3:22.73 | 325343 | 340565 20 | 75:40.66 | 3:33.22 | 340566 | 356562

Track | Pregap | Indexes --------------------------------------------------------- 1 | 00:02:00 | 1 2 | 00:00:00 | 1 3 | 00:00:00 | 1 4 | 00:00:00 | 1 5 | 00:00:00 | 1 6 | 00:00:00 | 1 7 | 00:00:00 | 1 8 | 00:00:00 | 1 9 | 00:00:00 | 1 10 | 00:00:00 | 1 11 | 00:00:00 | 1 12 | 00:00:00 | 1 13 | 00:00:00 | 1 14 | 00:00:00 | 1 15 | 00:00:00 | 1 16 | 00:00:00 | 1 17 | 00:00:00 | 1 18 | 00:00:00 | 1 19 | 00:00:00 | 1 20 | 00:00:00 | 1

Destination files C:\Users\Администратор\Music\David Bowie\2010 - Greatest Hits Part1 CD2\David Bowie - Greatest Hits Part1 CD2.flac

[CTDB TOCID: qsUjgiXmT.FhGgS5QjJ669MIWnc-] disk not present in database.

AccurateRip summary

[AccurateRip ID: 003acad2-035d8334-11129214] disk not present in database.

Track Peak [ CRC32 ] [W/O NULL] -- 100.0 [D4BB39B2] [A9509600] 01 100.0 [AB0328E7] [CAEB9FFD] 02 100.0 [EE0159CD] [0A1EAB3A] 03 93.8 [847ED5F5] [D402EF82] 04 100.0 [DE71A831] [EBAD7B96] 05 100.0 [CEC5A277] [1E987391] 06 100.0 [9AAE354F] [8BB0456F] 07 100.0 [24873536] [9AD17045] 08 100.0 [3E8ADC5B] [4BCF8862] 09 100.0 [C3877CA1] [E4647B59] 10 100.0 [8FE67F00] [6689A38C] 11 100.0 [F56B4EFB] [735CDDD0] 12 100.0 [2B347F16] [045FB0A4] 13 98.0 [14C89900] [2FEB984C] 14 100.0 [6F1B8AB0] [A5852AB8] 15 100.0 [726BFA19] [90B8B91A] 16 89.8 [16815340] [E7384F84] 17 100.0 [12404DD4] [2CE0A2CF] 18 100.0 [93D4BF0C] [D7527C8B] 19 100.0 [87B0F22A] [23B15949] 20 100.0 [90B344CC] [02575ACA]

End of status report
David Bowie - Greatest Hits Part2 CD1
01. Let's Dance (4:10)
02. Ashes to Ashes (3:39)
03. Under Pressure (4:08)
04. Fashion (3:28)
05. Modern Love (4:01)
06. China Girl (4:19)
07. Scary Monsters (And Super Creeps) (3:34)
08. Up the Hill Backwards (3:18)
09. Alabama Song (3:54)
10. Cat People (Putting Out Fire) (4:14)
11. This Is Not America (3:53)
12. Loving the Alien (7:11)
13. Absolute Beginners (5:40)
14. When the Wind Blows (3:37)
15. Blue Jean (3:14)
16. Day-In Day Out (4:13)
17. Time Will Crawl (4:21)
18. Underground (4:29)
19. Fame 90 (3:40)

David Bowie - Greatest Hits Part2 CD2
01. Under The God (4:07)
02. Baby Universal (3:19)
03. Jump They Say (4:23)
04. Buddha Of Suburbia (Featuring Lenny Kravitz On Guitar) (4:21)
05. Leon Takes Us Outside (1:25)
06. Outside (4:05)
07. The Hearts Filthy Lesson (4:58)
08. Hallo Spaceboy (5:15)
09. Little Wonder (6:02)
10. Dead Man Walking (6:50)
11. I'm Afraid Of Americans (5:00)
12. Thursday's Child (5:23)
13. Survive (4:11)
14. Seven (4:05)
15. Slow Burn (4:41)
16. I've Been Waiting for You (3:00)
17. Everyone Says 'Hi' (3:58)
18. New Killer Star (4:41)
  
CUERipper v2.1.4 Copyright (C) 2008-12 Grigory ChudovExtraction logfile from : 06/28/2012 21:25:13Used drive : PIONEER - DVD-RW DVR-112DRead offset correction : 48Read command : BEh, 12h, BEh, 16 blocks at a timeSecure mode : 1Disk length : 79:01:50AccurateRip : disk not present in database

TOC of the extracted CD

Track | Start | Length | Start sector | End sector --------------------------------------------------------- 1 | 0:00.00 | 4:09.45 | 0 | 18719 2 | 4:09.45 | 3:38.45 | 18720 | 35114 3 | 7:48.15 | 4:07.65 | 35115 | 53704 4 | 11:56.05 | 3:28.00 | 53705 | 69304 5 | 15:24.05 | 4:00.55 | 69305 | 87359 6 | 19:24.60 | 4:19.00 | 87360 | 106784 7 | 23:43.60 | 3:34.27 | 106785 | 122861 8 | 27:18.12 | 3:17.55 | 122862 | 137691 9 | 30:35.67 | 3:54.18 | 137692 | 155259 10 | 34:30.10 | 4:14.35 | 155260 | 174344 11 | 38:44.45 | 3:53.32 | 174345 | 191851 12 | 42:38.02 | 7:10.53 | 191852 | 224154 13 | 49:48.55 | 5:39.40 | 224155 | 249619 14 | 55:28.20 | 3:36.50 | 249620 | 265869 15 | 59:04.70 | 3:13.70 | 265870 | 280414 16 | 62:18.65 | 4:13.30 | 280415 | 299419 17 | 66:32.20 | 4:20.55 | 299420 | 318974 18 | 70:53.00 | 4:28.60 | 318975 | 339134 19 | 75:21.60 | 3:39.65 | 339135 | 355624

Track | Pregap | Indexes --------------------------------------------------------- 1 | 00:02:00 | 1 2 | 00:00:00 | 1 3 | 00:00:00 | 1 4 | 00:00:00 | 1 5 | 00:00:00 | 1 6 | 00:00:00 | 1 7 | 00:00:00 | 1 8 | 00:00:00 | 1 9 | 00:00:00 | 1 10 | 00:00:00 | 1 11 | 00:00:00 | 1 12 | 00:00:00 | 1 13 | 00:00:00 | 1 14 | 00:00:00 | 1 15 | 00:00:00 | 1 16 | 00:00:00 | 1 17 | 00:00:00 | 1 18 | 00:00:00 | 1 19 | 00:00:00 | 1

Destination files C:\Users\Администратор\Music\David Bowie\2010 - Greatest Hits Part2 CD1\David Bowie - Greatest Hits Part2 CD1.flac

[CTDB TOCID: gygfwUH88dJv7G10WyVF8fMP0QY-] disk not present in database.

AccurateRip summary

[AccurateRip ID: 00353208-02ef5e45-08128513] disk not present in database.

Track Peak [ CRC32 ] [W/O NULL] -- 100.0 [AE2FBE8F] [012FEAA9] 01 100.0 [E18F38B4] [08B8C657] 02 100.0 [B1F5641D] [4450A6A9] 03 100.0 [757F19C7] [7D39BCF5] 04 100.0 [55398CA7] [5DBECE94] 05 100.0 [CDDC1601] [7C1D918C] 06 100.0 [3A5A175A] [FAC43709] 07 100.0 [836484B9] [E6EDF010] 08 100.0 [8AED7C5E] [E3F9D7DE] 09 94.1 [64191D56] [C6A61B44] 10 100.0 [E57CB0EB] [E3D75E18] 11 100.0 [6576FD61] [24042A00] 12 96.5 [3A3E0AC3] [98A0B83D] 13 100.0 [858269C6] [4014B80E] 14 100.0 [CF310259] [7E7DD9EF] 15 88.5 [F7D92B1D] [B53E60D9] 16 100.0 [A36DEF9E] [4AAF5176] 17 100.0 [1838BF1A] [4AE2346E] 18 100.0 [FFE83BF6] [87501381] 19 100.0 [0138D044] [606FF0DC]

End of status report
  
CUERipper v2.1.4 Copyright (C) 2008-12 Grigory ChudovExtraction logfile from : 06/28/2012 21:51:30Used drive : PIONEER - DVD-RW DVR-112DRead offset correction : 48Read command : BEh, 12h, BEh, 16 blocks at a timeSecure mode : 1Disk length : 79:42:69AccurateRip : disk not present in database

TOC of the extracted CD

Track | Start | Length | Start sector | End sector --------------------------------------------------------- 1 | 0:00.00 | 4:06.52 | 0 | 18501 2 | 4:06.52 | 3:19.02 | 18502 | 33428 3 | 7:25.54 | 4:23.12 | 33429 | 53165 4 | 11:48.66 | 4:20.40 | 53166 | 72705 5 | 16:09.31 | 1:25.05 | 72706 | 79085 6 | 17:34.36 | 4:04.65 | 79086 | 97450 7 | 21:39.26 | 4:57.42 | 97451 | 119767 8 | 26:36.68 | 5:14.38 | 119768 | 143355 9 | 31:51.31 | 6:02.10 | 143356 | 170515 10 | 37:53.41 | 6:50.25 | 170516 | 201290 11 | 44:43.66 | 5:00.17 | 201291 | 223807 12 | 49:44.08 | 5:23.10 | 223808 | 248042 13 | 55:07.18 | 4:11.32 | 248043 | 266899 14 | 59:18.50 | 4:04.53 | 266900 | 285252 15 | 63:23.28 | 4:41.18 | 285253 | 306345 16 | 68:04.46 | 3:00.03 | 306346 | 319848 17 | 71:04.49 | 3:57.50 | 319849 | 337673 18 | 75:02.24 | 4:40.45 | 337674 | 358718

Track | Pregap | Indexes --------------------------------------------------------- 1 | 00:02:00 | 1 2 | 00:00:00 | 1 3 | 00:00:00 | 1 4 | 00:00:00 | 1 5 | 00:00:00 | 1 6 | 00:00:00 | 1 7 | 00:00:00 | 1 8 | 00:00:00 | 1 9 | 00:00:00 | 1 10 | 00:00:00 | 1 11 | 00:00:00 | 1 12 | 00:00:00 | 1 13 | 00:00:00 | 1 14 | 00:00:00 | 1 15 | 00:00:00 | 1 16 | 00:00:00 | 1 17 | 00:00:00 | 1 18 | 00:00:00 | 1

Destination files C:\Users\Администратор\Music\David Bowie\2010 - Greatest Hits Part2 CD2\David Bowie - Greatest Hits Part2 CD2.flac

[CTDB TOCID: AbH_AEiwm52f8E9d3K9eEXvTLHQ-] disk not present in database.

AccurateRip summary

[AccurateRip ID: 0032e6b7-02b1a3f8-0b12ae12] disk not present in database.

Track Peak [ CRC32 ] [W/O NULL] -- 100.0 [AC4717AA] [EB2ADEEF] 01 100.0 [792EC8B3] [CF64A645] 02 100.0 [DA4CBAFF] [ED5687CA] 03 100.0 [95169AFC] [9D1C8AEA] 04 100.0 [32D47652] [7BD9BF77] 05 52.0 [078F6369] [3E83BCD4] 06 99.2 [D404A2D3] [454315B1] 07 96.4 [2CE09125] [7385008D] 08 88.4 [56B5D8C0] [DF1C0C0E] 09 79.9 [CDC31C88] [68CF5F8D] 10 61.7 [E6C4E716] [C26AA496] 11 85.1 [09D53A33] [4074FD94] 12 74.9 [1D0EB017] [D53B5C2F] 13 80.3 [E0329542] [4716EF08] 14 92.2 [C683C3C4] [EE5A0017] 15 65.5 [850BB783] [52EF17E3] 16 59.2 [7C2A81B3] [D46AEADD] 17 73.6 [30F16B9B] [C65FA96A] 18 60.8 [B07E5DFA] [19C10748]

End of status report


Трекер:  [ 18-Июл-2012 06:24 ]

  

Скачать .torrent

Размер .torrent файла 12 KB


Размер: 2.14 GB
Хэш (hash) релиза: 1e8b54d07ea3afa7bafc2cca959df8289eb3669f

Торренты, похожие на David Bowie - Greatest Hits скачать торрент

Форум Название Автор Размер S L Добавлен
Зарубежный Rock ·· (Classic Rock, Glam Rock) David Bowie - Fame And Fashion (David Bowie's All Time Greatest Hits) (US version, Japan pressing) - 1984, FLAC (image+.cue), lossless Galfimbul 387323427369 MB 0 0 1342733520

00:32

20-Июл-12

Еще никто не оставлял запись к записи скачать торрент David Bowie - Greatest Hits . Будь первым!

!Обратная связь