Скачать через торрент музыку Cico - Notte - 1974 бесплатно без регистрации torrent

Если у вас наблюдаются проблемы со скриншотами, переходом по ссылками, скачиванием торрентов - проблемы в блокировщике рекламы AdBlock. #хорошегоДня!


Статистика раздачи
Размер:  289 MB   |    Зарегистрирован:  5 лет 1 месяц   |    .torrent скачан:  14 раз   |   
Раздают:  1  
   
Загрузка...
 
Автор Сообщение

Umakiro

avatar Umakiro


Cico / Notte
Жанр: Progressive Rock, RPI, Pop Rock
Год издания: 1974 (2011)
Издатель (лейбл): Austria Record Finder
Номер по каталогу: ARF105
Страна: Italy
Аудиокодек: FLAC (*.flac)
Тип рипа: tracks+.cue
Битрейт аудио: lossless
Продолжительность: 45:22
Источник (релизер): вата (kotetsu29292929)
Наличие сканов в содержимом раздачи: да

Треклист:
1. Insonnia - 4:03
2. Il Successo - 4:37
3. Se Mi Vuoi - 3:56
4. I Cattivi Consigli - 3:04
5. Il Fiore Rosa - 4:16
6. Il Prete E Il Semplice - 4:35
7. Il Gatto Di Casa - 3:41
8. Non Dire Di No - 4:40
9. Distrazione Mentale - 4:21
10. Piu - 3:45
11. La Notte - 4:24
|| Se Mi Vuoi || Piu || La Notte || discogs || rateyourmusic ||
  
Exact Audio Copy V1.0 beta 3 from 29. August 2011

EAC extraction logfile from 14. July 2012, 21:29

Cico / Notte

Used drive : ATAPI iHAS324 Y Adapter: 4 ID: 0

Read mode : SecureUtilize accurate stream : YesDefeat audio cache : YesMake use of C2 pointers : No

Read offset correction : 48Overread into Lead-In and Lead-Out : NoFill up missing offset samples with silence : YesDelete leading and trailing silent blocks : NoNull samples used in CRC calculations : YesUsed interface : Native Win32 interface for Win NT & 2000Gap handling : Appended to previous track

Used output format : User Defined EncoderSelected bitrate : 896 kBit/sQuality : HighAdd ID3 tag : NoCommand line compressor : C:\Program Files\Exact Audio Copy\flac.exeAdditional command line options : -8 -V -T "ARTIST=%artist%" -T "TITLE=%title%" -T "ALBUM=%albumtitle%" -T "DATE=%year%" -T "TRACKNUMBER=%tracknr%" -T "GENRE=%genre%" -T "PERFORMER=%albuminterpret%" -T "COMPOSER=%composer%" %haslyrics%--tag-from-file=LYRICS="%lyricsfile%"%haslyrics% -T "ALBUMARTIST=%albumartist%" -T "DISCNUMBER=%cdnumber%" -T "TOTALDISCS=%totalcds%" -T "TOTALTRACKS=%numtracks%" -T "COMMENT=%comment%" %source% -o %dest%

TOC of the extracted CD

Track | Start | Length | Start sector | End sector --------------------------------------------------------- 1 | 0:00.00 | 4:02.60 | 0 | 18209 2 | 4:02.60 | 4:37.15 | 18210 | 38999 3 | 8:40.00 | 3:55.50 | 39000 | 56674 4 | 12:35.50 | 3:04.18 | 56675 | 70492 5 | 15:39.68 | 4:15.60 | 70493 | 89677 6 | 19:55.53 | 4:34.65 | 89678 | 110292 7 | 24:30.43 | 3:41.15 | 110293 | 126882 8 | 28:11.58 | 4:40.35 | 126883 | 147917 9 | 32:52.18 | 4:21.02 | 147918 | 167494 10 | 37:13.20 | 3:44.45 | 167495 | 184339 11 | 40:57.65 | 4:23.60 | 184340 | 204124

Track 1

Filename C:\EAC\01 - Insonnia.wav

Pre-gap length 0:00:02.00

Peak level 100.0 % Extraction speed 2.3 X Track quality 100.0 % Test CRC 373B4EDB Copy CRC 373B4EDB Track not present in AccurateRip database Copy OK

Track 2

Filename C:\EAC\02 - Il Successo.wav

Peak level 100.0 % Extraction speed 2.3 X Track quality 99.9 % Test CRC 878B186D Copy CRC 878B186D Track not present in AccurateRip database Copy OK

Track 3

Filename C:\EAC\03 - Se Mi Vuoi.wav

Peak level 100.0 % Extraction speed 2.8 X Track quality 100.0 % Test CRC E484F261 Copy CRC E484F261 Track not present in AccurateRip database Copy OK

Track 4

Filename C:\EAC\04 - I Cattivi Consigli.wav

Peak level 100.0 % Extraction speed 2.5 X Track quality 99.9 % Test CRC 94673493 Copy CRC 94673493 Track not present in AccurateRip database Copy OK

Track 5

Filename C:\EAC\05 - Il Fiore Rosa.wav

Peak level 100.0 % Extraction speed 3.2 X Track quality 100.0 % Test CRC 079643F3 Copy CRC 079643F3 Track not present in AccurateRip database Copy OK

Track 6

Filename C:\EAC\06 - Il Prete E Il Semplice.wav

Peak level 100.0 % Extraction speed 3.1 X Track quality 99.9 % Test CRC 322BE2D8 Copy CRC 322BE2D8 Track not present in AccurateRip database Copy OK

Track 7

Filename C:\EAC\07 - Il Gatto Di Casa.wav

Peak level 100.0 % Extraction speed 3.5 X Track quality 100.0 % Test CRC 9A5D7494 Copy CRC 9A5D7494 Track not present in AccurateRip database Copy OK

Track 8

Filename C:\EAC\08 - non Dire Di No.wav

Peak level 100.0 % Extraction speed 3.8 X Track quality 100.0 % Test CRC A27F95A0 Copy CRC A27F95A0 Track not present in AccurateRip database Copy OK

Track 9

Filename C:\EAC\09 - Distrazione Mentale.wav

Peak level 100.0 % Extraction speed 4.0 X Track quality 100.0 % Test CRC FCB113B6 Copy CRC FCB113B6 Track not present in AccurateRip database Copy OK

Track 10

Filename C:\EAC\10 - Piu.wav

Peak level 100.0 % Extraction speed 4.1 X Track quality 100.0 % Test CRC 257A8946 Copy CRC 257A8946 Track not present in AccurateRip database Copy OK

Track 11

Filename C:\EAC\11 - La Notte.wav

Peak level 100.0 % Extraction speed 4.3 X Track quality 100.0 % Test CRC 5BA321A0 Copy CRC 5BA321A0 Track not present in AccurateRip database Copy OK

None of the tracks are present in the AccurateRip database

No errors occurred

End of status report

==== Log checksum 37D698C85498736C9FAEF6FB60873A0C59DB4FBD821B03DAE19DBD7D6AFA022C ====

------------------------------------------------------------

Exact Audio Copy V1.0 beta 3 from 29. August 2011

EAC extraction logfile from 14. July 2012, 21:29

Cico / Notte

Used drive : ATAPI iHAS324 Y Adapter: 4 ID: 0

Read mode : SecureUtilize accurate stream : YesDefeat audio cache : YesMake use of C2 pointers : No

Read offset correction : 48Overread into Lead-In and Lead-Out : NoFill up missing offset samples with silence : YesDelete leading and trailing silent blocks : NoNull samples used in CRC calculations : YesUsed interface : Native Win32 interface for Win NT & 2000Gap handling : Appended to previous track

Used output format : User Defined EncoderSelected bitrate : 896 kBit/sQuality : HighAdd ID3 tag : NoCommand line compressor : C:\Program Files\Exact Audio Copy\flac.exeAdditional command line options : -8 -V -T "ARTIST=%artist%" -T "TITLE=%title%" -T "ALBUM=%albumtitle%" -T "DATE=%year%" -T "TRACKNUMBER=%tracknr%" -T "GENRE=%genre%" -T "PERFORMER=%albuminterpret%" -T "COMPOSER=%composer%" %haslyrics%--tag-from-file=LYRICS="%lyricsfile%"%haslyrics% -T "ALBUMARTIST=%albumartist%" -T "DISCNUMBER=%cdnumber%" -T "TOTALDISCS=%totalcds%" -T "TOTALTRACKS=%numtracks%" -T "COMMENT=%comment%" %source% -o %dest%

TOC of the extracted CD

Track | Start | Length | Start sector | End sector --------------------------------------------------------- 1 | 0:00.00 | 4:02.60 | 0 | 18209 2 | 4:02.60 | 4:37.15 | 18210 | 38999 3 | 8:40.00 | 3:55.50 | 39000 | 56674 4 | 12:35.50 | 3:04.18 | 56675 | 70492 5 | 15:39.68 | 4:15.60 | 70493 | 89677 6 | 19:55.53 | 4:34.65 | 89678 | 110292 7 | 24:30.43 | 3:41.15 | 110293 | 126882 8 | 28:11.58 | 4:40.35 | 126883 | 147917 9 | 32:52.18 | 4:21.02 | 147918 | 167494 10 | 37:13.20 | 3:44.45 | 167495 | 184339 11 | 40:57.65 | 4:23.60 | 184340 | 204124

Track 1

Filename C:\EAC\01 - Insonnia.wav

Pre-gap length 0:00:02.00

Peak level 100.0 % Extraction speed 2.3 X Track quality 100.0 % Test CRC 373B4EDB Copy CRC 373B4EDB Track not present in AccurateRip database Copy OK

Track 2

Filename C:\EAC\02 - Il Successo.wav

Peak level 100.0 % Extraction speed 2.3 X Track quality 99.9 % Test CRC 878B186D Copy CRC 878B186D Track not present in AccurateRip database Copy OK

Track 3

Filename C:\EAC\03 - Se Mi Vuoi.wav

Peak level 100.0 % Extraction speed 2.8 X Track quality 100.0 % Test CRC E484F261 Copy CRC E484F261 Track not present in AccurateRip database Copy OK

Track 4

Filename C:\EAC\04 - I Cattivi Consigli.wav

Peak level 100.0 % Extraction speed 2.5 X Track quality 99.9 % Test CRC 94673493 Copy CRC 94673493 Track not present in AccurateRip database Copy OK

Track 5

Filename C:\EAC\05 - Il Fiore Rosa.wav

Peak level 100.0 % Extraction speed 3.2 X Track quality 100.0 % Test CRC 079643F3 Copy CRC 079643F3 Track not present in AccurateRip database Copy OK

Track 6

Filename C:\EAC\06 - Il Prete E Il Semplice.wav

Peak level 100.0 % Extraction speed 3.1 X Track quality 99.9 % Test CRC 322BE2D8 Copy CRC 322BE2D8 Track not present in AccurateRip database Copy OK

Track 7

Filename C:\EAC\07 - Il Gatto Di Casa.wav

Peak level 100.0 % Extraction speed 3.5 X Track quality 100.0 % Test CRC 9A5D7494 Copy CRC 9A5D7494 Track not present in AccurateRip database Copy OK

Track 8

Filename C:\EAC\08 - non Dire Di No.wav

Peak level 100.0 % Extraction speed 3.8 X Track quality 100.0 % Test CRC A27F95A0 Copy CRC A27F95A0 Track not present in AccurateRip database Copy OK

Track 9

Filename C:\EAC\09 - Distrazione Mentale.wav

Peak level 100.0 % Extraction speed 4.0 X Track quality 100.0 % Test CRC FCB113B6 Copy CRC FCB113B6 Track not present in AccurateRip database Copy OK

Track 10

Filename C:\EAC\10 - Piu.wav

Peak level 100.0 % Extraction speed 4.1 X Track quality 100.0 % Test CRC 257A8946 Copy CRC 257A8946 Track not present in AccurateRip database Copy OK

Track 11

Filename C:\EAC\11 - La Notte.wav

Peak level 100.0 % Extraction speed 4.3 X Track quality 100.0 % Test CRC 5BA321A0 Copy CRC 5BA321A0 Track not present in AccurateRip database Copy OK

None of the tracks are present in the AccurateRip database

No errors occurred

End of status report

==== Log checksum 37D698C85498736C9FAEF6FB60873A0C59DB4FBD821B03DAE19DBD7D6AFA022C ====
  
REM GENRE "Progressive Rock"REM DATE 1974REM DISCID 9E0AA10BREM COMMENT "ExactAudioCopy v1.0b3"PERFORMER "Cico"TITLE "Notte"FILE "01 - Insonnia.wav" WAVE TRACK 01 AUDIO TITLE "Insonnia" PERFORMER "Cico" ISRC ITR007400952 INDEX 01 00:00:00FILE "02 - Il Successo.wav" WAVE TRACK 02 AUDIO TITLE "Il Successo" PERFORMER "Cico" ISRC ITR007400953 INDEX 01 00:00:00FILE "03 - Se Mi Vuoi.wav" WAVE TRACK 03 AUDIO TITLE "Se Mi Vuoi" PERFORMER "Cico" ISRC ITR007400954 INDEX 01 00:00:00FILE "04 - I Cattivi Consigli.wav" WAVE TRACK 04 AUDIO TITLE "I Cattivi Consigli" PERFORMER "Cico" ISRC ITR007400955 INDEX 01 00:00:00FILE "05 - Il Fiore Rosa.wav" WAVE TRACK 05 AUDIO TITLE "Il Fiore Rosa" PERFORMER "Cico" ISRC ITR007400956 INDEX 01 00:00:00FILE "06 - Il Prete E Il Semplice.wav" WAVE TRACK 06 AUDIO TITLE "Il Prete E Il Semplice" PERFORMER "Cico" ISRC ITR007400957 INDEX 01 00:00:00FILE "07 - Il Gatto Di Casa.wav" WAVE TRACK 07 AUDIO TITLE "Il Gatto Di Casa" PERFORMER "Cico" ISRC ITR007400958 INDEX 01 00:00:00FILE "08 - non Dire Di No.wav" WAVE TRACK 08 AUDIO TITLE "non Dire Di No" PERFORMER "Cico" ISRC ITR007400959 INDEX 01 00:00:00FILE "09 - Distrazione Mentale.wav" WAVE TRACK 09 AUDIO TITLE "Distrazione Mentale" PERFORMER "Cico" ISRC ITR007400960 INDEX 01 00:00:00FILE "10 - Piu.wav" WAVE TRACK 10 AUDIO TITLE "Piu" PERFORMER "Cico" ISRC ITR007400961 INDEX 01 00:00:00FILE "11 - La Notte.wav" WAVE TRACK 11 AUDIO TITLE "La Notte" PERFORMER "Cico" ISRC ITR007400962 INDEX 01 00:00:00
  
-----------------------

DON'T MODIFY THIS FILE

-----------------------

PERFORMER: auCDtect Task Manager, ver. 1.5.1RC4 build 1.5.1.5Copyright (c) 2008-2010 y-soft. All rights reservedhttp://y-soft.org

ANALYZER: auCDtect: CD records authenticity detector, version 0.8.2Copyright (c) 2004 Oleg Berngardt. All rights reserved.Copyright (c) 2004 Alexander Djourik. All rights reserved.

FILE: 06 - Il Prete E Il Semplice.flac Size: 32266509 Hash: D3DA4C57940878763823007F7843F917 Accuracy: -m0 Conclusion: CDDA 100% Signature: 0236B00C1F0FE0E35702F3E836DCDF5EBE933ACBFILE: 05 - Il Fiore Rosa.flac Size: 24597674 Hash: A1E4A64E4F521BD38027A3F802032122 Accuracy: -m0 Conclusion: CDDA 100% Signature: 83DC4DC60A3351CE274531E567CB945D1BF4BE76FILE: 04 - I Cattivi Consigli.flac Size: 20828253 Hash: 812BDC328350810E3ED45433A250CCC1 Accuracy: -m0 Conclusion: CDDA 100% Signature: 1CEDCC41E132E7FB5D50A49CAD404B363A8782C3FILE: 03 - Se Mi Vuoi.flac Size: 25921727 Hash: 40F28875765756F514F566D375CEC195 Accuracy: -m0 Conclusion: MPEG 95% Signature: CFCAA55E539F5C6144440E814AF4E70C80030498FILE: 02 - Il Successo.flac Size: 35427822 Hash: 7220713A8F997780D6369327EF760EFB Accuracy: -m0 Conclusion: CDDA 100% Signature: BA03DAE07AB56371E9BA13D26AACAC1E62035C73FILE: 01 - Insonnia.flac Size: 26824516 Hash: 9CACB3E2AE5F1A9E8D82A91282186E7A Accuracy: -m0 Conclusion: CDDA 100% Signature: F1B2B35E834120357CC2A1A8A67451CBCDE81F5DFILE: 11 - La Notte.flac Size: 27367665 Hash: FEDACD61E3DEC6E3FE8214588928E9E2 Accuracy: -m0 Conclusion: CDDA 100% Signature: A49F11C37CBD4E8EDB7D89C1FD35EE4767B973BCFILE: 10 - Piu.flac Size: 23863708 Hash: 7A02D159CD35E6870D09DD17A1DDA1C1 Accuracy: -m0 Conclusion: CDDA 100% Signature: A900AC6EA06D1E48DD74CAE82AFD0903FCB39E61FILE: 09 - Distrazione Mentale.flac Size: 29291846 Hash: 3A648AC50708999FA7956DF751C58F7A Accuracy: -m0 Conclusion: MPEG 79% Signature: 6C2B13AD40755C17AE0CF2C833BD8FA296DF33C9FILE: 08 - non Dire Di No.flac Size: 30485182 Hash: 6C6F419ED836B16E8FBA76630FFED87B Accuracy: -m0 Conclusion: CDDA 100% Signature: 4AA537B00894CC39EE0F927A573D47D9F84D6CBBFILE: 07 - Il Gatto Di Casa.flac Size: 24715143 Hash: 84C94E1F56150C4AA8359954BADD3CE5 Accuracy: -m0 Conclusion: CDDA 100% Signature: 9A4B95CAAA9BF3A59873373DAD6343AA0D75F312
Tony Cicco (1950) è un batterista e tastierista italiano.
Nazionalità: Italia
Genere: Rock progressivo
Periodo di attività: 1969 – in attività
Strumento: Batteria
Band: Fantasy, Formula 3, Forza 3
Album pubblicati: 5

Biografia

Diplomato al conservatorio di Napoli, inizia la sua carriera negli anni sessanta suonando nei locali e nel 1969 come batterista fonda la Formula 3 insieme ad Alberto Radius alla chitarra e a Gabriele Lorenzi alle tastiere.

A questo periodo risale anche l’incontro con Lucio Battisti, anche lui agli inizi, con il quale iniziano a collaborare alla registrazione di Questo folle sentimento ed accompagnano Battisti negli unici 20 concerti fatti in Italia.
Dopo lo scioglimento della Formula 3 dal '73 al '90, con il nome Cico iniziò una nuova carriera come solista pubblicando nel 1974 il suo primo 45 giri "Se mi vuoi". Successivamente pubblica quattro album come solista ai quali partecipano Carla Vistarini come autrice dei testi e Paolo Ormi o Gianni Mazza agli arrangiamenti.
Nel 1977 come batteria e tastiere forma il gruppo dei Fantasy insieme a Danilo Vaona (voce) e Luigi Lopez (chitarra), che nel 1978 per la EMI pubblica l’album Uno (EMI 3C064 18306). A questo album collaborano anche altri artisti come Carla Vistarini, Riccardo Fogli, Viola Valentino, Giancarlo Lucariello.
Sul finire degli anni settanta collabora con Pino Daniele come percussionista e tastierista nel suo secondo album, Pino Daniele, del 1979 e con Fabio Frizzi per la realizzazione della colonna sonora del cult movie Zombi 2 diretto da Lucio Fulci (Cicco suonerà la marimba e le percussioni); poi, con il suo vero nome di Antonio Cicco collabora negli anni ottanta con Mario Castelnuovo, che appare anche come autore di brani dopo la ricostituzione nel 1993 della Formula 3 con Alberto Radius.

http://it.wikipedia.org/wiki/Tony_Cicco
Bass – Amedeo Tommaso
Drums, Percussion – Cico
Guitar – Silvano Chimenti
Keyboards, Percussion – Paolo Ormi
Percussion – Ciro Cicco



Трекер:  [ 18-Июл-2012 06:24 ]

  

Скачать .torrent

Размер .torrent файла 12 KB


Размер: 289 MB
Хэш (hash) релиза: ddae83457e6b3246dfe5f01bb6a9449eb58fbc15

Торренты, похожие на Cico - Notte - 1974 скачать торрент

Форум Название Автор Размер S L Добавлен
Зарубежный Rock ·· (Progressive Rock) Cico - Notte - 1974 (2011), MP3, 320 kbps Galfimbul 110663455106 MB 0 0 1342705620

16:47

19-Июл-12

Еще никто не оставлял запись к записи скачать торрент Cico - Notte - 1974 . Будь первым!

!Обратная связь