Скачать через торрент музыку Eclat - Volume 3 - 1997, WavPack бесплатно без регистрации torrent

Если у вас наблюдаются проблемы со скриншотами, переходом по ссылками, скачиванием торрентов - проблемы в блокировщике рекламы AdBlock. #хорошегоДня!


Статистика раздачи
Размер:  393 MB   |    Зарегистрирован:  5 лет 4 месяца   |    .torrent скачан:  18 раз   |   
Раздают:  1  
   
Загрузка...
 
Автор Сообщение

Umakiro

avatar Umakiro


Eclat / Volume 3

Жанр: Symphonic Prog
Страна-производитель диска: France
Год издания: 1997
Издатель (лейбл): Kezako
Номер по каталогу: 971
Страна: France
Аудиокодек: WavPack (*.wv)
Тип рипа: iso.wv
Битрейт аудио: lossless
Продолжительность: 42:11
Источник (релизер): tatuk (из личного шкафчика)
Наличие сканов в содержимом раздачи: да
Треклист:
1. Ekla (3:33)
2. La Machine (4:00)
3. Le Grand Passant (6:24)
4. La Madeleine (3:51)
5. Lovania (4:12)
6. Sequoïa (9:46)
7. Nostalgia (2:13)
8. Mare Nostrum (4:42)
9. Non Nobis... (3:30)
  
Exact Audio Copy V1.0 beta 3 from 29. August 2011

EAC extraction logfile from 16. July 2012, 9:14

Eclat / Volume 3

Used drive : SONY DVD RW DRU-830A Adapter: 1 ID: 0

Read mode : SecureUtilize accurate stream : YesDefeat audio cache : YesMake use of C2 pointers : No

Read offset correction : 6Overread into Lead-In and Lead-Out : NoFill up missing offset samples with silence : YesDelete leading and trailing silent blocks : NoNull samples used in CRC calculations : YesUsed interface : Native Win32 interface for Win NT & 2000

Used output format : User Defined EncoderSelected bitrate : 768 kBit/sQuality : HighAdd ID3 tag : NoCommand line compressor : C:\Program Files (x86)\Exact Audio Copy\wavpack\wavpack.exeAdditional command line options : -hlm %source%

TOC of the extracted CD

Track | Start | Length | Start sector | End sector --------------------------------------------------------- 1 | 0:00.33 | 3:33.20 | 33 | 16027 2 | 3:33.53 | 4:00.62 | 16028 | 34089 3 | 7:34.40 | 6:24.33 | 34090 | 62922 4 | 13:58.73 | 3:51.47 | 62923 | 80294 5 | 17:50.45 | 4:12.08 | 80295 | 99202 6 | 22:02.53 | 9:46.52 | 99203 | 143204 7 | 31:49.30 | 2:13.40 | 143205 | 153219 8 | 34:02.70 | 4:42.03 | 153220 | 174372 9 | 38:44.73 | 3:30.40 | 174373 | 190162

Range status and errors

Selected range

Filename D:\_NL+_by_TATUK\WV.ISO5\Eclat - Volume 3.wav

Peak level 98.9 % Extraction speed 6.4 X Range quality 99.9 % Copy CRC 2E6BD7B8 Copy OK

No errors occurred

AccurateRip summary

Track 1 accurately ripped (confidence 2) [18B42B67] (AR v1)Track 2 accurately ripped (confidence 2) [1C73D361] (AR v1)Track 3 accurately ripped (confidence 2) [691B5184] (AR v1)Track 4 accurately ripped (confidence 2) [7AED9022] (AR v1)Track 5 accurately ripped (confidence 2) [08CD0474] (AR v1)Track 6 accurately ripped (confidence 2) [D95ACE7C] (AR v1)Track 7 accurately ripped (confidence 2) [323E55FE] (AR v1)Track 8 accurately ripped (confidence 2) [7B579147] (AR v1)Track 9 accurately ripped (confidence 2) [AA521F43] (AR v1)

All tracks accurately ripped

End of status report

==== Log checksum 3B1AAF2002EBA97E4F50121F733F51048343A7929DE31B705E6A1D069F6A9050 ====
  
REM GENRE "Progressive Rock"REM DATE 1997REM DISCID 5C09E709REM COMMENT "ExactAudioCopy v1.0b3"PERFORMER "Eclat"TITLE "Volume 3"FILE "Eclat - Volume 3 1997.wv" WAVE TRACK 01 AUDIO TITLE "Ekla" PERFORMER "Eclat" INDEX 00 00:00:00 INDEX 01 00:00:33 TRACK 02 AUDIO TITLE "La Machine" PERFORMER "Eclat" INDEX 01 03:33:53 TRACK 03 AUDIO TITLE "Le Grand Passant" PERFORMER "Eclat" INDEX 01 07:34:40 TRACK 04 AUDIO TITLE "La Madeleine" PERFORMER "Eclat" INDEX 01 13:58:73 TRACK 05 AUDIO TITLE "Lovania" PERFORMER "Eclat" INDEX 01 17:50:45 TRACK 06 AUDIO TITLE "Sequoïa" PERFORMER "Eclat" INDEX 01 22:02:53 TRACK 07 AUDIO TITLE "Nostalgia" PERFORMER "Eclat" INDEX 01 31:49:30 TRACK 08 AUDIO TITLE "Mare Nostrum" PERFORMER "Eclat" INDEX 01 34:02:70 TRACK 09 AUDIO TITLE "Non Nobis..." PERFORMER "Eclat" INDEX 01 38:44:73
  
-----------------------

DON'T MODIFY THIS FILE

-----------------------

PERFORMER: auCDtect Task Manager, ver. 1.5.1RC3 build 1.5.1.4Copyright (c) 2008-2010 y-soft. All rights reservedhttp://y-soft.org

ANALYZER: auCDtect: CD records authenticity detector, version 0.8.2Copyright (c) 2004 Oleg Berngardt. All rights reserved.Copyright (c) 2004 Alexander Djourik. All rights reserved.

FILE: Eclat - Volume 3.wv Size: 280110676 Hash: F0D3799E3821252A262E016B995D1884 Accuracy: -m0 Conclusion: CDDA 100% Signature: 90246DE08F2C9001689E9A9EC1267F946A1800EB
Eclat - Volume 3 1997.wv.cue
front.jpg
KEZAKO 971.sig
cd.jpg
back.jpg
Eclat - Volume 3 1997.wv
Eclat - Volume 3 1997.log
checkers\Eclat - Volume 3 1997.accurip
checkers\Eclat - Volume 3.wv.auCDtect.txt
checkers\matrix.jpg
checkers\spectral.jpg
checkers\wave.jpg
checkers\EAC.jpg
misc\info.txt
readme\[RUS] README No unpacking needed to play or burn this release.txt
readme\[ENG] README No unpacking needed to play or burn this release.txt
scans\back.png
scans\booklet1-2.png
scans\booklet2-3.png
scans\booklet4-5.png
scans\booklet6-7.png
scans\cd.png
scans\inlay.png
Доп. информация: По просьбе добряков Vknish, wurensh и Monju35...
- Alain Chiarazzo / guitars, vocals
- Fabrice Di Mondo / drums, percussions
- Philippe Troisi / bass
- Thierry Massé / keyboards
- Michel Isnard / guitars


Трекер:  [ 18-Июл-2012 06:24 ]

  

Скачать .torrent

Размер .torrent файла 1 KB


Размер: 393 MB
Хэш (hash) релиза: 51d7f53393fc3da36ed562a060f50f07a53b7aff

Еще никто не оставлял запись к записи скачать торрент Eclat - Volume 3 - 1997, WavPack . Будь первым!

!Обратная связь