Скачать через торрент музыку Lucio Battisti - 1969, FLAC бесплатно без регистрации torrent

Если у вас наблюдаются проблемы со скриншотами, переходом по ссылками, скачиванием торрентов - проблемы в блокировщике рекламы AdBlock. #хорошегоДня!


Статистика раздачи
Размер:  250 MB   |    Зарегистрирован:  5 лет 2 месяца   |    .torrent скачан:  14 раз   |   
Раздают:  1  
   
Загрузка...
 
Автор Сообщение

Umakiro

avatar Umakiro


Lucio Battisti
Жанр: Progressive
[b]Год выпуска альбома
: 1969
Год издания диска: 2003
Издатель (лейбл): BMG Ricordi
Номер по каталогу: 74321 948482
Страна: Italy
Аудиокодек: FLAC (*.flac)
Тип рипа: tracks+.cue
Битрейт аудио: lossless
Продолжительность: 38:59
Источник (релизер): www
Наличие сканов в содержимом раздачи: да
Треклист:
01. Un’avventura
02. 29 settembre
03. La mia canzone per Maria
04. Nel sole, nel vento, nel sorriso e nel pianto
05. Uno in più
06. Non è Francesca
07. Balla Linda
08. Per una lira
09. Prigioniero del mondo
10. Io vivrò (senza te)
11. Nel cuore, nell’anima
12. Il vento[/b]
  
EAC extraction logfile from 23. June 2007, 0:12 for CDLucio Battisti / Lucio Battisti

Used drive : PLEXTOR DVDR PX-716A Adapter: 1 ID: 0Read mode : Secure with NO C2, accurate stream, disable cacheRead offset correction : 30Overread into Lead-In and Lead-Out : No

Used output format : C:\Programmi\Exact Audio Copy\flac-1.1.2-win\bin\flac.exe (User Defined Encoder) 32 kBit/s Additional command line options : -8 -V -T "artist=%a" -T "title=%t" -T "album=%g" -T "date=%y" -T "tracknumber=%n" -T "genre=%m" -T "comment=Exact Audio Copy 0.95 b3 Secure Mode / FLAC q8 v. 1.1.2" %s

Other options : Fill up missing offset samples with silence : Yes Delete leading and trailing silent blocks : No Installed external ASPI interface

Track 1 Filename F:\[MyRip]\01 - Un'avventura.wav

Pre-gap length 0:00:02.00

Peak level 100.0 % Track quality 100.0 % Test CRC 1116F659 Copy CRC 1116F659 Copy OK

Track 2 Filename F:\[MyRip]\02 - 29 Settembre.wav

Pre-gap length 0:00:02.24

Peak level 99.8 % Track quality 99.9 % Test CRC 63501914 Copy CRC 63501914 Copy OK

Track 3 Filename F:\[MyRip]\03 - La Mia Canzone Per Maria.wav

Pre-gap length 0:00:01.68

Peak level 99.9 % Track quality 100.0 % Test CRC E1E5E9A5 Copy CRC E1E5E9A5 Copy OK

Track 4 Filename F:\[MyRip]\04 - Nel Sole, Nel Vento, Nel Sorriso E Nel Pianto.wav

Pre-gap length 0:00:02.34

Peak level 99.4 % Track quality 100.0 % Test CRC 939402E8 Copy CRC 939402E8 Copy OK

Track 5 Filename F:\[MyRip]\05 - Uno In Piu'.wav

Pre-gap length 0:00:02.53

Peak level 99.9 % Track quality 100.0 % Test CRC F18359CB Copy CRC F18359CB Copy OK

Track 6 Filename F:\[MyRip]\06 - Non E' Francesca.wav

Pre-gap length 0:00:01.39

Peak level 99.0 % Track quality 99.9 % Test CRC F92A5711 Copy CRC F92A5711 Copy OK

Track 7 Filename F:\[MyRip]\07 - Balla Linda.wav

Pre-gap length 0:00:01.60

Peak level 98.9 % Track quality 100.0 % Test CRC 55D2559A Copy CRC 55D2559A Copy OK

Track 8 Filename F:\[MyRip]\08 - Per Una Lira.wav

Pre-gap length 0:00:02.45

Peak level 99.9 % Track quality 100.0 % Test CRC 14E01F68 Copy CRC 14E01F68 Copy OK

Track 9 Filename F:\[MyRip]\09 - Prigioniero Del Mondo.wav

Pre-gap length 0:00:00.36

Peak level 99.9 % Track quality 100.0 % Test CRC 6AC5A04E Copy CRC 6AC5A04E Copy OK

Track 10 Filename F:\[MyRip]\10 - Io Vivro' (Senza Te).wav

Pre-gap length 0:00:01.00

Peak level 99.9 % Track quality 99.9 % Test CRC 5E3960D5 Copy CRC 5E3960D5 Copy OK

Track 11 Filename F:\[MyRip]\11 - Nel Cuore, Nell'anima.wav

Pre-gap length 0:00:00.32

Peak level 99.8 % Track quality 100.0 % Test CRC 2AB0621F Copy CRC 2AB0621F Copy OK

Track 12 Filename F:\[MyRip]\12 - Il Vento.wav

Pre-gap length 0:00:01.55

Peak level 99.1 % Track quality 100.0 % Test CRC AE4DCDC4 Copy CRC AE4DCDC4 Copy OK

No errors occured

End of status report

------------------------------------------------------------

EAC extraction logfile from 23. June 2007, 0:12 for CDLucio Battisti / Lucio Battisti

Used drive : PLEXTOR DVDR PX-716A Adapter: 1 ID: 0Read mode : Secure with NO C2, accurate stream, disable cacheRead offset correction : 30Overread into Lead-In and Lead-Out : No

Used output format : C:\Programmi\Exact Audio Copy\flac-1.1.2-win\bin\flac.exe (User Defined Encoder) 32 kBit/s Additional command line options : -8 -V -T "artist=%a" -T "title=%t" -T "album=%g" -T "date=%y" -T "tracknumber=%n" -T "genre=%m" -T "comment=Exact Audio Copy 0.95 b3 Secure Mode / FLAC q8 v. 1.1.2" %s

Other options : Fill up missing offset samples with silence : Yes Delete leading and trailing silent blocks : No Installed external ASPI interface

Track 1 Filename F:\[MyRip]\01 - Un'avventura.wav

Pre-gap length 0:00:02.00

Peak level 100.0 % Track quality 100.0 % Test CRC 1116F659 Copy CRC 1116F659 Copy OK

Track 2 Filename F:\[MyRip]\02 - 29 Settembre.wav

Pre-gap length 0:00:02.24

Peak level 99.8 % Track quality 99.9 % Test CRC 63501914 Copy CRC 63501914 Copy OK

Track 3 Filename F:\[MyRip]\03 - La Mia Canzone Per Maria.wav

Pre-gap length 0:00:01.68

Peak level 99.9 % Track quality 100.0 % Test CRC E1E5E9A5 Copy CRC E1E5E9A5 Copy OK

Track 4 Filename F:\[MyRip]\04 - Nel Sole, Nel Vento, Nel Sorriso E Nel Pianto.wav

Pre-gap length 0:00:02.34

Peak level 99.4 % Track quality 100.0 % Test CRC 939402E8 Copy CRC 939402E8 Copy OK

Track 5 Filename F:\[MyRip]\05 - Uno In Piu'.wav

Pre-gap length 0:00:02.53

Peak level 99.9 % Track quality 100.0 % Test CRC F18359CB Copy CRC F18359CB Copy OK

Track 6 Filename F:\[MyRip]\06 - Non E' Francesca.wav

Pre-gap length 0:00:01.39

Peak level 99.0 % Track quality 99.9 % Test CRC F92A5711 Copy CRC F92A5711 Copy OK

Track 7 Filename F:\[MyRip]\07 - Balla Linda.wav

Pre-gap length 0:00:01.60

Peak level 98.9 % Track quality 100.0 % Test CRC 55D2559A Copy CRC 55D2559A Copy OK

Track 8 Filename F:\[MyRip]\08 - Per Una Lira.wav

Pre-gap length 0:00:02.45

Peak level 99.9 % Track quality 100.0 % Test CRC 14E01F68 Copy CRC 14E01F68 Copy OK

Track 9 Filename F:\[MyRip]\09 - Prigioniero Del Mondo.wav

Pre-gap length 0:00:00.36

Peak level 99.9 % Track quality 100.0 % Test CRC 6AC5A04E Copy CRC 6AC5A04E Copy OK

Track 10 Filename F:\[MyRip]\10 - Io Vivro' (Senza Te).wav

Pre-gap length 0:00:01.00

Peak level 99.9 % Track quality 99.9 % Test CRC 5E3960D5 Copy CRC 5E3960D5 Copy OK

Track 11 Filename F:\[MyRip]\11 - Nel Cuore, Nell'anima.wav

Pre-gap length 0:00:00.32

Peak level 99.8 % Track quality 100.0 % Test CRC 2AB0621F Copy CRC 2AB0621F Copy OK

Track 12 Filename F:\[MyRip]\12 - Il Vento.wav

Pre-gap length 0:00:01.55

Peak level 99.1 % Track quality 100.0 % Test CRC AE4DCDC4 Copy CRC AE4DCDC4 Copy OK

No errors occured

End of status report
  
REM GENRE WorldREM DATE 1969REM DISCID A809350CREM COMMENT "ExactAudioCopy v0.95b3"PERFORMER "Lucio Battisti"TITLE "Lucio Battisti"FILE "01 - Un'avventura.flac" WAVE TRACK 01 AUDIO TITLE "Un'avventura" PERFORMER "Lucio Battisti" INDEX 01 00:00:00 TRACK 02 AUDIO TITLE "29 Settembre" PERFORMER "Lucio Battisti" INDEX 00 03:11:42FILE "02 - 29 Settembre.flac" WAVE INDEX 01 00:00:00 TRACK 03 AUDIO TITLE "La Mia Canzone Per Maria" PERFORMER "Lucio Battisti" INDEX 00 03:29:20FILE "03 - La Mia Canzone Per Maria.flac" WAVE INDEX 01 00:00:00 TRACK 04 AUDIO TITLE "Nel Sole, Nel Vento, Nel Sorriso E Nel Pianto" PERFORMER "Lucio Battisti" INDEX 00 03:09:64FILE "04 - Nel Sole, Nel Vento, Nel Sorriso E Nel Pianto.flac" WAVE INDEX 01 00:00:00 TRACK 05 AUDIO TITLE "Uno In Piu'" PERFORMER "Lucio Battisti" INDEX 00 02:45:38FILE "05 - Uno In Piu'.flac" WAVE INDEX 01 00:00:00 TRACK 06 AUDIO TITLE "Non E' Francesca" PERFORMER "Lucio Battisti" INDEX 00 03:41:57FILE "06 - Non E' Francesca.flac" WAVE INDEX 01 00:00:00 TRACK 07 AUDIO TITLE "Balla Linda" PERFORMER "Lucio Battisti" INDEX 00 03:54:70FILE "07 - Balla Linda.flac" WAVE INDEX 01 00:00:00 TRACK 08 AUDIO TITLE "Per Una Lira" PERFORMER "Lucio Battisti" INDEX 00 03:07:36FILE "08 - Per Una Lira.flac" WAVE INDEX 01 00:00:00 TRACK 09 AUDIO TITLE "Prigioniero Del Mondo" PERFORMER "Lucio Battisti" INDEX 00 02:27:22FILE "09 - Prigioniero Del Mondo.flac" WAVE INDEX 01 00:00:00 TRACK 10 AUDIO TITLE "Io Vivro' (Senza Te)" PERFORMER "Lucio Battisti" INDEX 00 03:25:10FILE "10 - Io Vivro' (Senza Te).flac" WAVE INDEX 01 00:00:00 TRACK 11 AUDIO TITLE "Nel Cuore, Nell'anima" PERFORMER "Lucio Battisti" INDEX 00 03:53:26FILE "11 - Nel Cuore, Nell'anima.flac" WAVE INDEX 01 00:00:00 TRACK 12 AUDIO TITLE "Il Vento" PERFORMER "Lucio Battisti" INDEX 00 02:20:55FILE "12 - Il Vento.flac" WAVE INDEX 01 00:00:00

Скачавшие, пожалуйста, поддержите раздачу как можно дольше!

Трекер:  [ 18-Июл-2012 06:25 ]

  

Скачать .torrent

Размер .torrent файла 21 KB


Размер: 250 MB
Хэш (hash) релиза: d78fd9738eb7305dfd29a6823c5fa832eefa0ab8

Еще никто не оставлял запись к записи скачать торрент Lucio Battisti - 1969, FLAC . Будь первым!

!Обратная связь