Скачать через торрент музыку Michael Thompson Band - Future Past - 2012, FLAC бесплатно без регистрации torrent

Если у вас наблюдаются проблемы со скриншотами, переходом по ссылками, скачиванием торрентов - проблемы в блокировщике рекламы AdBlock. #хорошегоДня!


Статистика раздачи
Размер:  368 MB   |    Зарегистрирован:  5 лет 4 месяца   |    .torrent скачан:  21 раз   |   
Раздают:  1  
   
Загрузка...
 
Автор Сообщение

Umakiro

avatar Umakiro



Michael Thompson Band / Future Past
Жанр: Melodic Rock / AOR
Страна-производитель диска: Italy
Год издания: 2012
Издатель (лейбл): Frontiers Records
Страна: US
Аудиокодек: FLAC (*.flac)
Тип рипа: image+.cue
Битрейт аудио: lossless
Продолжительность: 0:51:01
Источник (релизер): CD
Наличие сканов в содержимом раздачи: нет
Треклист:
01. High Times
02. Can't Be Right
03. Future Past
04. When You Love Someone
05. Here I Am
06. Beautiful Mystery
07. Break Me Down
08. End Game
09. Gypsy Road
10. Can't Miss
11. Fight For Your Life
  
Exact Audio Copy V1.0 beta 3 from 29. August 2011

EAC extraction logfile from 1. July 2012, 15:02

Michael Thompson Band / Future Past

Used drive : PIONEER DVD-RW DVR-115D Adapter: 1 ID: 0

Read mode : SecureUtilize accurate stream : YesDefeat audio cache : YesMake use of C2 pointers : No

Read offset correction : 48Overread into Lead-In and Lead-Out : NoFill up missing offset samples with silence : YesDelete leading and trailing silent blocks : NoNull samples used in CRC calculations : YesUsed interface : Native Win32 interface for Win NT & 2000

Used output format : Internal WAV RoutinesSample format : 44.100 Hz; 16 Bit; Stereo

TOC of the extracted CD

Track | Start | Length | Start sector | End sector --------------------------------------------------------- 1 | 0:00.00 | 4:41.40 | 0 | 21114 2 | 4:41.40 | 4:06.10 | 21115 | 39574 3 | 8:47.50 | 5:11.48 | 39575 | 62947 4 | 13:59.23 | 5:24.11 | 62948 | 87258 5 | 19:23.34 | 3:48.28 | 87259 | 104386 6 | 23:11.62 | 4:27.48 | 104387 | 124459 7 | 27:39.35 | 4:23.20 | 124460 | 144204 8 | 32:02.55 | 4:32.44 | 144205 | 164648 9 | 36:35.24 | 4:44.49 | 164649 | 185997 10 | 41:19.73 | 4:36.64 | 185998 | 206761 11 | 45:56.62 | 5:04.06 | 206762 | 229567

Range status and errors

Selected range

Filename C:\Music\Michael Thompson Band - Future Past - 2012\Michael Thompson Band - Future Past.wav

Peak level 100.0 % Extraction speed 4.3 X Range quality 100.0 % Test CRC A56149C1 Copy CRC A56149C1 Copy OK

No errors occurred

AccurateRip summary

Track 1 not present in databaseTrack 2 not present in databaseTrack 3 not present in databaseTrack 4 not present in databaseTrack 5 not present in databaseTrack 6 not present in databaseTrack 7 not present in databaseTrack 8 not present in databaseTrack 9 accurately ripped (confidence 2) [DC10FBA7] (AR v2)Track 10 accurately ripped (confidence 2) [6E7FD35F] (AR v2)Track 11 accurately ripped (confidence 2) [0CE9250F] (AR v2)

3 трек(и) скопированы точно 8 трек(и) не содержатся в базе AccurateRip

Some tracks could not be verified as accurate

End of status report
  
REM GENRE AORREM DATE 2012REM DISCID 9F0BF40BREM COMMENT "ExactAudioCopy v1.0b3"PERFORMER "Michael Thompson Band"TITLE "Future Past"FILE "Michael Thompson Band - Future Past.flac" WAVE TRACK 01 AUDIO TITLE "High Times" PERFORMER "Michael Thompson Band" FLAGS DCP INDEX 01 00:00:00 TRACK 02 AUDIO TITLE "Can't Be Right" PERFORMER "Michael Thompson Band" FLAGS DCP INDEX 01 04:41:40 TRACK 03 AUDIO TITLE "Future Past" PERFORMER "Michael Thompson Band" FLAGS DCP INDEX 01 08:47:50 TRACK 04 AUDIO TITLE "When You Love Someone" PERFORMER "Michael Thompson Band" FLAGS DCP INDEX 01 13:59:23 TRACK 05 AUDIO TITLE "Here I Am" PERFORMER "Michael Thompson Band" FLAGS DCP INDEX 01 19:23:34 TRACK 06 AUDIO TITLE "Beautiful Mystery" PERFORMER "Michael Thompson Band" FLAGS DCP INDEX 01 23:11:62 TRACK 07 AUDIO TITLE "Break Me Down" PERFORMER "Michael Thompson Band" FLAGS DCP INDEX 01 27:39:35 TRACK 08 AUDIO TITLE "End Game" PERFORMER "Michael Thompson Band" FLAGS DCP INDEX 01 32:02:55 TRACK 09 AUDIO TITLE "Gypsy Road" PERFORMER "Michael Thompson Band" FLAGS DCP INDEX 01 36:35:24 TRACK 10 AUDIO TITLE "Can't Miss" PERFORMER "Michael Thompson Band" FLAGS DCP INDEX 01 41:19:73 TRACK 11 AUDIO TITLE "Fight For Your Life" PERFORMER "Michael Thompson Band" FLAGS DCP INDEX 01 45:56:62
  
Michael Thompson Guitars & Keys Larry King Vocals Khari Parker Drums Alan Berliant Bass

Guest Performers John Blasucci – Keys Dave Hiltebrand – Bass – When You Love Someone, Beautiful Mystery, Future Past, Here I Am & Break Me Down Matt Walker – Drums – High Times Sahara Thompson – Background Vocals – Can’t Miss J.P. Delaire – Keys, Background Vocals, Sax – Can’t Miss

Produced By : Larry King & Michael Thompson

http://frontiers.it/album/4977/


Трекер:  [ 18-Июл-2012 06:25 ]

  

Скачать .torrent

Размер .torrent файла 15 KB


Размер: 368 MB
Хэш (hash) релиза: 8234efb2a6660388d825491efffb778e64c55f31

Еще никто не оставлял запись к записи скачать торрент Michael Thompson Band - Future Past - 2012, FLAC . Будь первым!

!Обратная связь