Скачать через торрент музыку Bob Carpenter - Silent Passage бесплатно без регистрации torrent

Если у вас наблюдаются проблемы со скриншотами, переходом по ссылками, скачиванием торрентов - проблемы в блокировщике рекламы AdBlock. #хорошегоДня!


Статистика раздачи
Размер:  217 MB   |    Зарегистрирован:  5 лет 4 месяца   |    .torrent скачан:  4 раза   |   
Раздают:  1  
   
Загрузка...
 
Автор Сообщение

Umakiro

avatar Umakiro


Bob Carpenter / Silent Passage (1975)

Жанр: Folk-Rock
Страна-производитель диска: Korea
Год издания: 2007
Издатель (лейбл): Bella Terra / Riverman
Номер по каталогу: BTR0022
Страна: Canada
Аудиокодек: FLAC (*.flac)
Тип рипа: tracks+.cue
Битрейт аудио: lossless
Продолжительность: 38:11
Источник (релизер): what.cd()
Наличие сканов в содержимом раздачи: нет
Треклист:
01. Miracle Man (3:20)
02. Silent Passage (2:54)
03. Old Friends (3:46)
04. First Light (4:56)
05. Morning Train (4:36)
06. The Believer (3:47)
07. Gypsy Boy (4:43)
08. Down Along The Border (2:56)
09. Before My Time (4:49)
10. Now And Then (2:24)
  
Exact Audio Copy V0.99 prebeta 5 from 4. May 2009

EAC extraction logfile from 18. August 2009, 19:11

Bob Carpenter / Silent Passage

Used drive : HL-DT-STDVD-RAM GH22LS30 Adapter: 2 ID: 1

Read mode : SecureUtilize accurate stream : YesDefeat audio cache : YesMake use of C2 pointers : No

Read offset correction : 102Overread into Lead-In and Lead-Out : NoFill up missing offset samples with silence : YesDelete leading and trailing silent blocks : NoNull samples used in CRC calculations : YesUsed interface : Native Win32 interface for Win NT & 2000Gap handling : Appended to previous track

Used output format : User Defined EncoderSelected bitrate : 128 kBit/sQuality : HighAdd ID3 tag : NoCommand line compressor : C:\Program Files\FLAC\flac.exeAdditional command line options : -8 -V -T "ARTIST=%a" -T "TITLE=%t" -T "ALBUM=%g" -T "DATE=%y" -T "TRACKNUMBER=%n" -T "GENRE=%m" -T "COMMENT=EAC FLAC -8" %s

TOC of the extracted CD

Track | Start | Length | Start sector | End sector --------------------------------------------------------- 1 | 0:00.00 | 3:19.45 | 0 | 14969 2 | 3:19.45 | 2:54.35 | 14970 | 28054 3 | 6:14.05 | 3:45.55 | 28055 | 44984 4 | 9:59.60 | 4:56.05 | 44985 | 67189 5 | 14:55.65 | 4:35.42 | 67190 | 87856 6 | 19:31.32 | 3:47.08 | 87857 | 104889 7 | 23:18.40 | 4:43.12 | 104890 | 126126 8 | 28:01.52 | 2:56.03 | 126127 | 139329 9 | 30:57.55 | 4:49.35 | 139330 | 161039 10 | 35:47.15 | 2:23.70 | 161040 | 171834

Track 1

Filename F:\[[[EAC_Rip]]]]\Bob Carpenter - Silent Passage [1975] (FLAC)\01 - Miracle Man.wav

Pre-gap length 0:00:02.00

Peak level 98.9 % Track quality 100.0 % Test CRC F35B9B06 Copy CRC F35B9B06 Track not present in AccurateRip database Copy OK

Track 2

Filename F:\[[[EAC_Rip]]]]\Bob Carpenter - Silent Passage [1975] (FLAC)\02 - Silent Passage.wav

Pre-gap length 0:00:03.00

Peak level 98.9 % Track quality 100.0 % Test CRC 68F6826E Copy CRC 68F6826E Track not present in AccurateRip database Copy OK

Track 3

Filename F:\[[[EAC_Rip]]]]\Bob Carpenter - Silent Passage [1975] (FLAC)\03 - Old Friends.wav

Pre-gap length 0:00:03.00

Peak level 99.0 % Track quality 100.0 % Test CRC 8E1D5577 Copy CRC 8E1D5577 Track not present in AccurateRip database Copy OK

Track 4

Filename F:\[[[EAC_Rip]]]]\Bob Carpenter - Silent Passage [1975] (FLAC)\04 - First Light.wav

Pre-gap length 0:00:03.00

Peak level 94.0 % Track quality 100.0 % Test CRC 4E993786 Copy CRC 4E993786 Track not present in AccurateRip database Copy OK

Track 5

Filename F:\[[[EAC_Rip]]]]\Bob Carpenter - Silent Passage [1975] (FLAC)\05 - Morning Train.wav

Pre-gap length 0:00:03.00

Peak level 98.8 % Track quality 100.0 % Test CRC 624EF5C8 Copy CRC 624EF5C8 Track not present in AccurateRip database Copy OK

Track 6

Filename F:\[[[EAC_Rip]]]]\Bob Carpenter - Silent Passage [1975] (FLAC)\06 - The Believer.wav

Pre-gap length 0:00:03.00

Peak level 98.9 % Track quality 99.9 % Test CRC A7DD694B Copy CRC A7DD694B Track not present in AccurateRip database Copy OK

Track 7

Filename F:\[[[EAC_Rip]]]]\Bob Carpenter - Silent Passage [1975] (FLAC)\07 - Gypsy Boy.wav

Pre-gap length 0:00:02.55

Peak level 78.8 % Track quality 100.0 % Test CRC 91F5CB39 Copy CRC 91F5CB39 Track not present in AccurateRip database Copy OK

Track 8

Filename F:\[[[EAC_Rip]]]]\Bob Carpenter - Silent Passage [1975] (FLAC)\08 - Down Along The Border.wav

Pre-gap length 0:00:03.00

Peak level 99.3 % Track quality 100.0 % Test CRC D84D6E31 Copy CRC D84D6E31 Track not present in AccurateRip database Copy OK

Track 9

Filename F:\[[[EAC_Rip]]]]\Bob Carpenter - Silent Passage [1975] (FLAC)\09 - Before My Time.wav

Pre-gap length 0:00:03.00

Peak level 92.6 % Track quality 100.0 % Test CRC A23ED64E Copy CRC A23ED64E Track not present in AccurateRip database Copy OK

Track 10

Filename F:\[[[EAC_Rip]]]]\Bob Carpenter - Silent Passage [1975] (FLAC)\10 - Now And Then.wav

Pre-gap length 0:00:03.00

Peak level 96.0 % Track quality 100.0 % Test CRC 135358CF Copy CRC 135358CF Track not present in AccurateRip database Copy OK

None of the tracks are present in the AccurateRip database

No errors occurred

End of status report
  
REM GENRE FolkREM DATE 1975REM DISCID 7E08F30AREM COMMENT "ExactAudioCopy v0.99pb5"PERFORMER "Bob Carpenter"TITLE "Silent Passage"FILE "01 - Miracle Man.wav" WAVE TRACK 01 AUDIO TITLE "Miracle Man" PERFORMER "Bob Carpenter" INDEX 01 00:00:00 TRACK 02 AUDIO TITLE "Silent Passage" PERFORMER "Bob Carpenter" INDEX 00 03:16:45FILE "02 - Silent Passage.wav" WAVE INDEX 01 00:00:00 TRACK 03 AUDIO TITLE "Old Friends" PERFORMER "Bob Carpenter" INDEX 00 02:51:35FILE "03 - Old Friends.wav" WAVE INDEX 01 00:00:00 TRACK 04 AUDIO TITLE "First Light" PERFORMER "Bob Carpenter" INDEX 00 03:42:55FILE "04 - First Light.wav" WAVE INDEX 01 00:00:00 TRACK 05 AUDIO TITLE "Morning Train" PERFORMER "Bob Carpenter" INDEX 00 04:53:05FILE "05 - Morning Train.wav" WAVE INDEX 01 00:00:00 TRACK 06 AUDIO TITLE "The Believer" PERFORMER "Bob Carpenter" INDEX 00 04:32:42FILE "06 - The Believer.wav" WAVE INDEX 01 00:00:00 TRACK 07 AUDIO TITLE "Gypsy Boy" PERFORMER "Bob Carpenter" INDEX 00 03:44:28FILE "07 - Gypsy Boy.wav" WAVE INDEX 01 00:00:00 TRACK 08 AUDIO TITLE "Down Along The Border" PERFORMER "Bob Carpenter" INDEX 00 04:40:12FILE "08 - Down Along The Border.wav" WAVE INDEX 01 00:00:00 TRACK 09 AUDIO TITLE "Before My Time" PERFORMER "Bob Carpenter" INDEX 00 02:53:03FILE "09 - Before My Time.wav" WAVE INDEX 01 00:00:00 TRACK 10 AUDIO TITLE "Now And Then" PERFORMER "Bob Carpenter" INDEX 00 04:46:35FILE "10 - Now And Then.wav" WAVE INDEX 01 00:00:00
Canadian singer-songwriter, Bob Carpenter's first and only album, produced by Brian Ahern and recorded between 1971 and 1974 buy not released until 1984 because of contactual problesm. Anne Murray and Emmylou Harris supply Background vocals..

Well-known Canadian singer-songwriter, Bob Carpenter's first and only album, Silent Passage, was produced by Brian Ahern and recorded between 1971 and 1974. Background vocals on that album were supplied by Anne Murray and Emmylou Harris. Apparently 25,000 copies were pressed but never left the Warehouse due to some legal problems. It wasn't until 1984 when Holger Peterson obtained rights to release the album on Stony Plain. Bob Carpenter, aged 50, passed away July 19, 1995 from brain cancer."

The rare solo album from Canadian singer-singerwriter Bob Carpenter -- a really lovely record that mixes Bob's gritty and emotional folk rock tunes with some sweeter studio touches! The album was recorded from the early to mid 70s, had a troubled release history and deserved better. An endearing mix of gruff lead vocals with honest emotion and no nonsense acoustic guitars, but other tunes have a bigger sound with keys, strings and female backing vocals.


Трекер:  [ 17-Июл-2012 07:16 ]

  

Скачать .torrent

Размер .torrent файла 18 KB


Размер: 217 MB
Хэш (hash) релиза: de19fe056b25d03e48b1e799598464f8427ac5aa

Еще никто не оставлял запись к записи скачать торрент Bob Carpenter - Silent Passage . Будь первым!

!Обратная связь