Скачать через торрент музыку Stan Moeller - Thin Ties бесплатно без регистрации torrent

Если у вас наблюдаются проблемы со скриншотами, переходом по ссылками, скачиванием торрентов - проблемы в блокировщике рекламы AdBlock. #хорошегоДня!


Статистика раздачи
Размер:  220 MB   |    Зарегистрирован:  5 лет 1 месяц   |    .torrent скачан:  16 раз   |   
Раздают:  1  
   
Загрузка...
 
Автор Сообщение

Umakiro

avatar Umakiro


Stan Moeller / Thin Ties (1980)

Жанр: Folk-Rock, Psychedelic Folk
Страна-производитель диска: Korea
Год издания: 2007
Издатель (лейбл): Bella Terra / Riverman
Номер по каталогу: BTR0024
Страна: USA
Аудиокодек: FLAC (*.flac)
Тип рипа: tracks+.cue
Битрейт аудио: lossless
Продолжительность: 41:52
Источник (релизер): what.cd()
Наличие сканов в содержимом раздачи: нет
Треклист:
01. Changes (2:41)
02. Down With Your Ship (3:33)
03. Cold War (4:18)
04. Alone In L.A (4:08)
05. What Ever Happened To Love (3:38)
06. City Lights (3:36)
07. Love Is A Child (3:33)
08. If It's Love (2:28)
09. Margarita (4:48)
10. Ledges (5:12)
11. When You Say Goodbye To Me (3:58)
  
Exact Audio Copy V0.99 prebeta 5 from 4. May 2009

EAC extraction logfile from 19. August 2009, 23:06

Stan Moeller / Thin Ties

Used drive : HL-DT-STDVD-RAM GH22LS30 Adapter: 2 ID: 1

Read mode : SecureUtilize accurate stream : YesDefeat audio cache : YesMake use of C2 pointers : No

Read offset correction : 102Overread into Lead-In and Lead-Out : NoFill up missing offset samples with silence : YesDelete leading and trailing silent blocks : NoNull samples used in CRC calculations : YesUsed interface : Native Win32 interface for Win NT & 2000Gap handling : Appended to previous track

Used output format : User Defined EncoderSelected bitrate : 128 kBit/sQuality : HighAdd ID3 tag : NoCommand line compressor : C:\Program Files\FLAC\flac.exeAdditional command line options : -8 -V -T "ARTIST=%a" -T "TITLE=%t" -T "ALBUM=%g" -T "DATE=%y" -T "TRACKNUMBER=%n" -T "GENRE=%m" -T "COMMENT=EAC FLAC -8" %s

TOC of the extracted CD

Track | Start | Length | Start sector | End sector --------------------------------------------------------- 1 | 0:00.00 | 2:40.64 | 0 | 12063 2 | 2:40.64 | 3:32.47 | 12064 | 28010 3 | 6:13.36 | 4:18.34 | 28011 | 47394 4 | 10:31.70 | 4:08.01 | 47395 | 65995 5 | 14:39.71 | 3:38.18 | 65996 | 82363 6 | 18:18.14 | 3:36.30 | 82364 | 98593 7 | 21:54.44 | 3:32.65 | 98594 | 114558 8 | 25:27.34 | 2:27.60 | 114559 | 125643 9 | 27:55.19 | 4:47.72 | 125644 | 147240 10 | 32:43.16 | 5:11.58 | 147241 | 170623 11 | 37:54.74 | 3:57.66 | 170624 | 188464

Track 1

Filename F:\[[[EAC_Rip]]]]\Stan Moeller - Thin Ties [1980] (FLAC)\01 - Changes.wav

Pre-gap length 0:00:02.00

Peak level 96.2 % Track quality 100.0 % Test CRC 0AFFDC24 Copy CRC 0AFFDC24 Track not present in AccurateRip database Copy OK

Track 2

Filename F:\[[[EAC_Rip]]]]\Stan Moeller - Thin Ties [1980] (FLAC)\02 - Down With Your Ship.wav

Pre-gap length 0:00:03.06

Peak level 95.7 % Track quality 100.0 % Test CRC 013D4C99 Copy CRC 013D4C99 Track not present in AccurateRip database Copy OK

Track 3

Filename F:\[[[EAC_Rip]]]]\Stan Moeller - Thin Ties [1980] (FLAC)\03 - Cold War.wav

Pre-gap length 0:00:03.06

Peak level 96.0 % Track quality 100.0 % Test CRC 1DD28DE2 Copy CRC 1DD28DE2 Track not present in AccurateRip database Copy OK

Track 4

Filename F:\[[[EAC_Rip]]]]\Stan Moeller - Thin Ties [1980] (FLAC)\04 - Alone In L.A.wav

Pre-gap length 0:00:03.06

Peak level 96.0 % Track quality 100.0 % Test CRC A75B1052 Copy CRC A75B1052 Track not present in AccurateRip database Copy OK

Track 5

Filename F:\[[[EAC_Rip]]]]\Stan Moeller - Thin Ties [1980] (FLAC)\05 - What Ever Happened To Love.wav

Pre-gap length 0:00:03.06

Peak level 96.0 % Track quality 100.0 % Test CRC 70079A32 Copy CRC 70079A32 Track not present in AccurateRip database Copy OK

Track 6

Filename F:\[[[EAC_Rip]]]]\Stan Moeller - Thin Ties [1980] (FLAC)\06 - City Lights.wav

Pre-gap length 0:00:03.06

Peak level 96.6 % Track quality 100.0 % Test CRC F2FB677D Copy CRC F2FB677D Track not present in AccurateRip database Copy OK

Track 7

Filename F:\[[[EAC_Rip]]]]\Stan Moeller - Thin Ties [1980] (FLAC)\07 - Love Is A Child.wav

Pre-gap length 0:00:03.06

Peak level 95.9 % Track quality 99.9 % Test CRC 5781133F Copy CRC 5781133F Track not present in AccurateRip database Copy OK

Track 8

Filename F:\[[[EAC_Rip]]]]\Stan Moeller - Thin Ties [1980] (FLAC)\08 - If It's Love.wav

Pre-gap length 0:00:03.06

Peak level 96.0 % Track quality 100.0 % Test CRC 52BB46B2 Copy CRC 52BB46B2 Track not present in AccurateRip database Copy OK

Track 9

Filename F:\[[[EAC_Rip]]]]\Stan Moeller - Thin Ties [1980] (FLAC)\09 - Margarita.wav

Pre-gap length 0:00:03.06

Peak level 96.6 % Track quality 100.0 % Test CRC 092A7300 Copy CRC 092A7300 Track not present in AccurateRip database Copy OK

Track 10

Filename F:\[[[EAC_Rip]]]]\Stan Moeller - Thin Ties [1980] (FLAC)\10 - Ledges.wav

Pre-gap length 0:00:03.06

Peak level 95.9 % Track quality 100.0 % Test CRC C760BDD7 Copy CRC C760BDD7 Track not present in AccurateRip database Copy OK

Track 11

Filename F:\[[[EAC_Rip]]]]\Stan Moeller - Thin Ties [1980] (FLAC)\11 - When You Say Goodbye To Me.wav

Pre-gap length 0:00:03.06

Peak level 96.0 % Track quality 100.0 % Test CRC AD8524A4 Copy CRC AD8524A4 Track not present in AccurateRip database Copy OK

None of the tracks are present in the AccurateRip database

No errors occurred

End of status report
  
REM GENRE FolkREM DATE 1980REM DISCID 9009D00BREM COMMENT "ExactAudioCopy v0.99pb5"PERFORMER "Stan Moeller"TITLE "Thin Ties"FILE "01 - Changes.wav" WAVE TRACK 01 AUDIO TITLE "Changes" PERFORMER "Stan Moeller" INDEX 01 00:00:00 TRACK 02 AUDIO TITLE "Down With Your Ship" PERFORMER "Stan Moeller" INDEX 00 02:37:58FILE "02 - Down With Your Ship.wav" WAVE INDEX 01 00:00:00 TRACK 03 AUDIO TITLE "Cold War" PERFORMER "Stan Moeller" INDEX 00 03:29:41FILE "03 - Cold War.wav" WAVE INDEX 01 00:00:00 TRACK 04 AUDIO TITLE "Alone In L.A" PERFORMER "Stan Moeller" INDEX 00 04:15:28FILE "04 - Alone In L.A.wav" WAVE INDEX 01 00:00:00 TRACK 05 AUDIO TITLE "What Ever Happened To Love" PERFORMER "Stan Moeller" INDEX 00 04:04:70FILE "05 - What Ever Happened To Love.wav" WAVE INDEX 01 00:00:00 TRACK 06 AUDIO TITLE "City Lights" PERFORMER "Stan Moeller" INDEX 00 03:35:12FILE "06 - City Lights.wav" WAVE INDEX 01 00:00:00 TRACK 07 AUDIO TITLE "Love Is A Child" PERFORMER "Stan Moeller" INDEX 00 03:33:24FILE "07 - Love Is A Child.wav" WAVE INDEX 01 00:00:00 TRACK 08 AUDIO TITLE "If It's Love" PERFORMER "Stan Moeller" INDEX 00 03:29:59FILE "08 - If It's Love.wav" WAVE INDEX 01 00:00:00 TRACK 09 AUDIO TITLE "Margarita" PERFORMER "Stan Moeller" INDEX 00 02:24:54FILE "09 - Margarita.wav" WAVE INDEX 01 00:00:00 TRACK 10 AUDIO TITLE "Ledges" PERFORMER "Stan Moeller" INDEX 00 04:44:66FILE "10 - Ledges.wav" WAVE INDEX 01 00:00:00 TRACK 11 AUDIO TITLE "When You Say Goodbye To Me" PERFORMER "Stan Moeller" INDEX 00 05:08:52FILE "11 - When You Say Goodbye To Me.wav" WAVE INDEX 01 00:00:00
This is the first-ever CD reissue of mellow U.S. singer-songwriter Stan Moeller's 1980 solo release Thin Ties, now remastered in a 24-bit remaster. Thin Ties showcases the wonderfully smooth, warbling, easy-going voice of Stan Moeller. This clever, honest musical oddity should have special appeal for acoustic fans who enjoy folk music in its many guises, past and present. Lyrics most often address longing and doomed love affairs against the background of some simply masterful and gently sparkling acoustic guitar-playing. A light West Coast vibe in nice minor keys and some jazzy, ramblin' electric guitar accompaniment. Moeller would later go on to perform folk as a duo with his wife T.S. Baker, opening for Donovan, Roger McGuinn, Leo Kottke, Richie Havens, and many more. Moeller is currently a successful landscape painter. Comes in a handsome paper sleeve that precisely reproduces the original LP sleeve in miniature form.


Трекер:  [ 18-Июл-2012 06:25 ]

  

Скачать .torrent

Размер .torrent файла 18 KB


Размер: 220 MB
Хэш (hash) релиза: 65f8e3db847392d2e1c76bd1dbb863cbfbf9e43a

Торренты, похожие на Stan Moeller - Thin Ties скачать торрент

Форум Название Автор Размер S L Добавлен
Зарубежный Rock ·· (Folk-Rock) Stan Moeller - Thin Ties - 1980, MP3, 320 kbps Galfimbul 10091117596 MB 0 0 1342733640

00:34

20-Июл-12

Еще никто не оставлял запись к записи скачать торрент Stan Moeller - Thin Ties . Будь первым!

!Обратная связь