Скачать через торрент музыку Bob Patterson - Instrumentalist, Singer, Songwriter бесплатно без регистрации torrent

Если у вас наблюдаются проблемы со скриншотами, переходом по ссылками, скачиванием торрентов - проблемы в блокировщике рекламы AdBlock. #хорошегоДня!


Статистика раздачи
Размер:  264 MB   |    Зарегистрирован:  5 лет 3 месяца   |    .torrent скачан:  7 раз   |   
Раздают:  1  
   
Загрузка...
 
Автор Сообщение

Umakiro

avatar Umakiro


Bob Patterson / Instrumentalist, Singer, Songwriter (1971)

Жанр: Folk-Rock
Страна-производитель диска: Korea
Год издания: 2009
Издатель (лейбл): Bella Terra / Riverman
Номер по каталогу: BTR0041
Страна: USA
Аудиокодек: FLAC (*.flac)
Тип рипа: tracks+.cue
Битрейт аудио: lossless
Продолжительность: 44:35
Источник (релизер): what.cd()
Наличие сканов в содержимом раздачи: нет
Треклист:
01. Travelin' Through The Countryside (4:54)
02. Meadowlands (Instrumental) (2:38)
03. Darlin' Good Girl (2:45)
04. Here's To Huddie (Instrumental) (1:19)
05. I Am Abandoned (4:29)
06. I'm Going Home (3:33)
07. Bed Of Roses (3:33)
08. Mick's Celebration (Instrumental) (1:50)
09. Lonesome City (3:00)
10. The Aalarm Rings Five (4:18)
11. Trippin' To Boston (Instrumental) (2:14)
12. Friends Of Mine (3:04)
13. Mississippi In The Morning (from the album 'Land Of The Twelve String Songman') (4:04)
14. Mary Ann (from the album 'Short Stories') (2:56)
  
Exact Audio Copy V0.99 prebeta 5 from 4. May 2009

EAC extraction logfile from 7. August 2009, 1:32

Instrumentalist, Singer, Songwriter / Bob Patterson

Used drive : HL-DT-STDVD-RAM GH22LS30 Adapter: 2 ID: 1

Read mode : SecureUtilize accurate stream : YesDefeat audio cache : YesMake use of C2 pointers : No

Read offset correction : 102Overread into Lead-In and Lead-Out : NoFill up missing offset samples with silence : YesDelete leading and trailing silent blocks : NoNull samples used in CRC calculations : YesUsed interface : Native Win32 interface for Win NT & 2000Gap handling : Appended to previous track

Used output format : User Defined EncoderSelected bitrate : 128 kBit/sQuality : HighAdd ID3 tag : NoCommand line compressor : C:\Program Files\FLAC\flac.exeAdditional command line options : -8 -V -T "ARTIST=%a" -T "TITLE=%t" -T "ALBUM=%g" -T "DATE=%y" -T "TRACKNUMBER=%n" -T "GENRE=%m" -T "COMMENT=EAC FLAC -8" %s

TOC of the extracted CD

Track | Start | Length | Start sector | End sector --------------------------------------------------------- 1 | 0:00.00 | 4:54.10 | 0 | 22059 2 | 4:54.10 | 2:37.40 | 22060 | 33874 3 | 7:31.50 | 2:44.73 | 33875 | 46247 4 | 10:16.48 | 1:18.58 | 46248 | 52155 5 | 11:35.31 | 4:29.28 | 52156 | 72358 6 | 16:04.59 | 3:32.49 | 72359 | 88307 7 | 19:37.33 | 3:33.28 | 88308 | 104310 8 | 23:10.61 | 1:50.08 | 104311 | 112568 9 | 25:00.69 | 2:59.46 | 112569 | 126039 10 | 28:00.40 | 4:17.46 | 126040 | 145360 11 | 32:18.11 | 2:13.61 | 145361 | 155396 12 | 34:31.72 | 3:04.04 | 155397 | 169200 13 | 37:36.01 | 4:03.38 | 169201 | 187463 14 | 41:39.39 | 2:56.24 | 187464 | 200687

Track 1

Filename D:\[[[EAC_Rip]]]]\Bob Patterson - Instrumentalist, Singer, Songwriter [1971] - Remasted Limited Edition 2009 (FLAC)\01 - Travelin' Through The Countryside.wav

Pre-gap length 0:00:02.00

Peak level 90.5 % Track quality 100.0 % Test CRC 0700A198 Copy CRC 0700A198 Track not present in AccurateRip database Copy OK

Track 2

Filename D:\[[[EAC_Rip]]]]\Bob Patterson - Instrumentalist, Singer, Songwriter [1971] - Remasted Limited Edition 2009 (FLAC)\02 - Meadowlands (Instrumental).wav

Pre-gap length 0:00:02.64

Peak level 88.2 % Track quality 100.0 % Test CRC 4A612752 Copy CRC 4A612752 Track not present in AccurateRip database Copy OK

Track 3

Filename D:\[[[EAC_Rip]]]]\Bob Patterson - Instrumentalist, Singer, Songwriter [1971] - Remasted Limited Edition 2009 (FLAC)\03 - Darlin' Good Girl.wav

Pre-gap length 0:00:02.70

Peak level 85.8 % Track quality 100.0 % Test CRC 69ACFF02 Copy CRC 69ACFF02 Track not present in AccurateRip database Copy OK

Track 4

Filename D:\[[[EAC_Rip]]]]\Bob Patterson - Instrumentalist, Singer, Songwriter [1971] - Remasted Limited Edition 2009 (FLAC)\04 - Here's To Huddie (Instrumental).wav

Pre-gap length 0:00:02.70

Peak level 88.1 % Track quality 100.0 % Test CRC 2C1C7CCB Copy CRC 2C1C7CCB Track not present in AccurateRip database Copy OK

Track 5

Filename D:\[[[EAC_Rip]]]]\Bob Patterson - Instrumentalist, Singer, Songwriter [1971] - Remasted Limited Edition 2009 (FLAC)\05 - I Am Abandoned.wav

Pre-gap length 0:00:02.65

Peak level 90.1 % Track quality 100.0 % Test CRC 31C13D63 Copy CRC 31C13D63 Track not present in AccurateRip database Copy OK

Track 6

Filename D:\[[[EAC_Rip]]]]\Bob Patterson - Instrumentalist, Singer, Songwriter [1971] - Remasted Limited Edition 2009 (FLAC)\06 - I'm Going Home.wav

Pre-gap length 0:00:02.66

Peak level 100.0 % Track quality 100.0 % Test CRC 2C221DAC Copy CRC 2C221DAC Track not present in AccurateRip database Copy OK

Track 7

Filename D:\[[[EAC_Rip]]]]\Bob Patterson - Instrumentalist, Singer, Songwriter [1971] - Remasted Limited Edition 2009 (FLAC)\07 - Bed Of Roses.wav

Pre-gap length 0:00:02.65

Peak level 88.6 % Track quality 100.0 % Test CRC 8E376C7A Copy CRC 8E376C7A Track not present in AccurateRip database Copy OK

Track 8

Filename D:\[[[EAC_Rip]]]]\Bob Patterson - Instrumentalist, Singer, Songwriter [1971] - Remasted Limited Edition 2009 (FLAC)\08 - Mick's Celebration (Instrumental).wav

Pre-gap length 0:00:02.73

Peak level 78.8 % Track quality 100.0 % Test CRC 1B79FDCC Copy CRC 1B79FDCC Track not present in AccurateRip database Copy OK

Track 9

Filename D:\[[[EAC_Rip]]]]\Bob Patterson - Instrumentalist, Singer, Songwriter [1971] - Remasted Limited Edition 2009 (FLAC)\09 - Lonesome City.wav

Pre-gap length 0:00:02.61

Peak level 80.5 % Track quality 100.0 % Test CRC B602E7EB Copy CRC B602E7EB Track not present in AccurateRip database Copy OK

Track 10

Filename D:\[[[EAC_Rip]]]]\Bob Patterson - Instrumentalist, Singer, Songwriter [1971] - Remasted Limited Edition 2009 (FLAC)\10 - The Aalarm Rings Five.wav

Pre-gap length 0:00:02.58

Peak level 100.0 % Track quality 100.0 % Test CRC 91256BB4 Copy CRC 91256BB4 Track not present in AccurateRip database Copy OK

Track 11

Filename D:\[[[EAC_Rip]]]]\Bob Patterson - Instrumentalist, Singer, Songwriter [1971] - Remasted Limited Edition 2009 (FLAC)\11 - Trippin' To Boston (Instrumental).wav

Pre-gap length 0:00:02.58

Peak level 88.2 % Track quality 99.9 % Test CRC E1AEAD5E Copy CRC E1AEAD5E Track not present in AccurateRip database Copy OK

Track 12

Filename D:\[[[EAC_Rip]]]]\Bob Patterson - Instrumentalist, Singer, Songwriter [1971] - Remasted Limited Edition 2009 (FLAC)\12 - Friends Of Mine.wav

Pre-gap length 0:00:02.60

Peak level 83.8 % Track quality 100.0 % Test CRC DB96CB42 Copy CRC DB96CB42 Track not present in AccurateRip database Copy OK

Track 13

Filename D:\[[[EAC_Rip]]]]\Bob Patterson - Instrumentalist, Singer, Songwriter [1971] - Remasted Limited Edition 2009 (FLAC)\13 - Mississippi In The Morning (from the album 'Land Of The Twelve String Songman').wav

Pre-gap length 0:00:05.63

Peak level 94.1 % Track quality 100.0 % Test CRC 0F1696AC Copy CRC 0F1696AC Track not present in AccurateRip database Copy OK

Track 14

Filename D:\[[[EAC_Rip]]]]\Bob Patterson - Instrumentalist, Singer, Songwriter [1971] - Remasted Limited Edition 2009 (FLAC)\14 - Mary Ann (from the album 'Short Stories').wav

Pre-gap length 0:00:02.61

Peak level 77.7 % Track quality 99.9 % Test CRC 5D5E0F6F Copy CRC 5D5E0F6F Track not present in AccurateRip database Copy OK

None of the tracks are present in the AccurateRip database

No errors occurred

End of status report
  
REM GENRE FolkREM DATE 1971REM DISCID C60A730EREM COMMENT "ExactAudioCopy v0.99pb5"PERFORMER "Instrumentalist, Singer, Songwriter"TITLE "Bob Patterson"FILE "01 - Travelin' Through The Countryside.wav" WAVE TRACK 01 AUDIO TITLE "Travelin' Through The Countryside" PERFORMER "Instrumentalist, Singer, Songwriter" FLAGS DCP INDEX 01 00:00:00 TRACK 02 AUDIO TITLE "Meadowlands (Instrumental)" PERFORMER "Instrumentalist, Singer, Songwriter" FLAGS DCP INDEX 00 04:51:21FILE "02 - Meadowlands (Instrumental).wav" WAVE INDEX 01 00:00:00 TRACK 03 AUDIO TITLE "Darlin' Good Girl" PERFORMER "Instrumentalist, Singer, Songwriter" FLAGS DCP INDEX 00 02:34:45FILE "03 - Darlin' Good Girl.wav" WAVE INDEX 01 00:00:00 TRACK 04 AUDIO TITLE "Here's To Huddie (Instrumental)" PERFORMER "Instrumentalist, Singer, Songwriter" FLAGS DCP INDEX 00 02:42:03FILE "04 - Here's To Huddie (Instrumental).wav" WAVE INDEX 01 00:00:00 TRACK 05 AUDIO TITLE "I Am Abandoned" PERFORMER "Instrumentalist, Singer, Songwriter" FLAGS DCP INDEX 00 01:15:68FILE "05 - I Am Abandoned.wav" WAVE INDEX 01 00:00:00 TRACK 06 AUDIO TITLE "I'm Going Home" PERFORMER "Instrumentalist, Singer, Songwriter" FLAGS DCP INDEX 00 04:26:37FILE "06 - I'm Going Home.wav" WAVE INDEX 01 00:00:00 TRACK 07 AUDIO TITLE "Bed Of Roses" PERFORMER "Instrumentalist, Singer, Songwriter" FLAGS DCP INDEX 00 03:29:59FILE "07 - Bed Of Roses.wav" WAVE INDEX 01 00:00:00 TRACK 08 AUDIO TITLE "Mick's Celebration (Instrumental)" PERFORMER "Instrumentalist, Singer, Songwriter" FLAGS DCP INDEX 00 03:30:30FILE "08 - Mick's Celebration (Instrumental).wav" WAVE INDEX 01 00:00:00 TRACK 09 AUDIO TITLE "Lonesome City" PERFORMER "Instrumentalist, Singer, Songwriter" FLAGS DCP INDEX 00 01:47:22FILE "09 - Lonesome City.wav" WAVE INDEX 01 00:00:00 TRACK 10 AUDIO TITLE "The Aalarm Rings Five" PERFORMER "Instrumentalist, Singer, Songwriter" FLAGS DCP INDEX 00 02:56:63FILE "10 - The Aalarm Rings Five.wav" WAVE INDEX 01 00:00:00 TRACK 11 AUDIO TITLE "Trippin' To Boston (Instrumental)" PERFORMER "Instrumentalist, Singer, Songwriter" FLAGS DCP INDEX 00 04:14:63FILE "11 - Trippin' To Boston (Instrumental).wav" WAVE INDEX 01 00:00:00 TRACK 12 AUDIO TITLE "Friends Of Mine" PERFORMER "Instrumentalist, Singer, Songwriter" FLAGS DCP INDEX 00 02:11:01FILE "12 - Friends Of Mine.wav" WAVE INDEX 01 00:00:00 TRACK 13 AUDIO TITLE "Mississippi In The Morning (from the album 'Land Of The Twelve String Songman')" PERFORMER "Instrumentalist, Singer, Songwriter" FLAGS DCP INDEX 00 02:58:16FILE "13 - Mississippi In The Morning (from the album 'Land Of The Twelve String Songman').wav" WAVE INDEX 01 00:00:00 TRACK 14 AUDIO TITLE "Mary Ann (from the album 'Short Stories')" PERFORMER "Instrumentalist, Singer, Songwriter" FLAGS DCP INDEX 00 04:00:52FILE "14 - Mary Ann (from the album 'Short Stories').wav" WAVE INDEX 01 00:00:00
The Twelve String guitarist & SSW, Bob Patterson's (Ex-leader of Elizabeth) first solo debut alburm, pressed privately. Very rare as much as Perry Leopold's Experiment In Metaphysics lp.
Korean label Riverman Music reissued as CD format at 2009.

-----------------------------------------------------------------------------------
rateyourmusic.com review

Hey, this is good !
I have to listen to it a few more times to get a clearer picture, but I immediately liked it on first listen.
Opening track "Travelling through the country" is really, really nice (happy, uplifting stuff) - and the whole album seems to be consistently good too.

Warm, inviting recording sound, and great underground/obscure looking cover too.

Not much else to say here, this is just great American early 70's folk (and surprisingly, no country overtones).
Performance Credits
Bob Patterson Primary Artist, 12-string Guitar
Kenny Jacobs Bass
Jerry Ricks Guitar, Bottleneck Guitar
Phil Peterson Rhythm
Jerry Rickws Guitar
Cotton Piano
Bob Roberts Banjo
Chuck Klein Dulcimer
Technical Credits
Bob Patterson Composer, Producer
Steve Weingarten Composer
Norman Baker Engineer


Трекер:  [ 17-Июл-2012 07:16 ]

  

Скачать .torrent

Размер .torrent файла 12 KB


Размер: 264 MB
Хэш (hash) релиза: c5d704f98ef34fe698f25e9ca12d2df0f93980f6

Еще никто не оставлял запись к записи скачать торрент Bob Patterson - Instrumentalist, Singer, Songwriter . Будь первым!

!Обратная связь