Скачать через торрент музыку Runrig - The Cutter and the Clan бесплатно без регистрации torrent

Если у вас наблюдаются проблемы со скриншотами, переходом по ссылками, скачиванием торрентов - проблемы в блокировщике рекламы AdBlock. #хорошегоДня!


Статистика раздачи
Размер:  597 MB   |    Зарегистрирован:  5 лет 4 месяца   |    .torrent скачан:  20 раз   |   
Раздают:  1  
   
Загрузка...
 
Автор Сообщение

Galfimbul

avatar Galfimbul


Runrig / The Cutter and the Clan (1987) / The Big Wheel (1991)

Жанр: Pop Rock,Folk Rock
Год издания: 1991
Аудиокодек: FLAC (*.flac)
Тип рипа: image+.cue
Битрейт аудио: lossless
Продолжительность: 37:38+51:34
Источник (релизер): my disc
Наличие сканов в содержимом раздачи: да
Треклист:
01. Alba [0:04:01.40]
02. The Cutter [0:03:50.58]
03. Hearts Of Olden Glory [0:02:13.57]
04. Pride Of The Summer [0:03:58.73]
05. Worker For The Wind [0:03:30.27]
06. Rocket To The Moon [0:04:59.13]
07. The Only Rose [0:03:51.12]
08. Protect And Survive [0:03:22.73]
09. Our Earth Was Once Green [0:04:01.15]
10. An Ubhal As Airde (The Highest Apple) [0:03:47.07]

01. Headlights [0:05:09.65]
02. Healer In Your Heart [0:05:34.22]
03. Abhainn An T-Sluaigh [0:05:19.03]
04. Always The Winner [0:05:42.52]
05. This Beautiful Pain [0:04:15.58]
06. An Cuibhle Mor / The Big Wheel [0:06:07.65]
07. Edge Of The World [0:05:00.42]
08. Hearthammer [0:04:27.05]
09. I'll Keep Coming Home [0:02:33.05]
10. Flower Of The West [0:07:24.00]
  
Exact Audio Copy V0.99 prebeta 4 from 23. January 2008

Отчёт EAC об извлечении, выполненном 16. июля 2012, 18:55

Runrig / The Cutter And The Clan

Дисковод: ASUS DRW-1814BL Adapter: 1 ID: 0

Режим чтения : ДостоверностьИспользование точного потока : ДаОтключение кэша аудио : ДаИспользование указателей C2 : Нет

Коррекция смещения при чтении : 6Способность читать области Lead-in и Lead-out : НетЗаполнение пропущенных сэмплов тишиной : ДаУдаление блоков с тишиной в начале и конце : НетПри вычислениях CRC использовались нулевые сэмплы : ДаИнтерфейс : Установленный внешний ASPI-интерфейс

Выходной формат : Пользовательский кодировщикВыбранный битрейт : 1024 kBit/sКачество : ВысокийДобавление ID3-тэга : НетУтилита сжатия : C:\Program Files\Exact Audio Copy\FLAC\FLAC.EXEДополнительные параметры : -6 -V -T "ARTIST=%a" -T "TITLE=%t" -T "ALBUM=%g" -T "DATE=%y" -T "TRACKNUMBER=%n" -T "GENRE=%m" -T "COMMENT=%e" %s -o %d

TOC извлечённого CD

Трек | Старт | Длительность | Начальный сектор | Конечный сектор --------------------------------------------------------------------- 1 | 0:00.52 | 4:01.40 | 52 | 18166 2 | 4:02.17 | 3:50.58 | 18167 | 35474 3 | 7:53.00 | 2:13.57 | 35475 | 45506 4 | 10:06.57 | 3:58.73 | 45507 | 63429 5 | 14:05.55 | 3:30.27 | 63430 | 79206 6 | 17:36.07 | 4:59.13 | 79207 | 101644 7 | 22:35.20 | 3:51.12 | 101645 | 118981 8 | 26:26.32 | 3:22.73 | 118982 | 134204 9 | 29:49.30 | 4:01.15 | 134205 | 152294 10 | 33:50.45 | 3:47.07 | 152295 | 169326

Характеристики диапазона извлечения и сообщения об ошибках

Выбранный диапазон

Имя файла H:\loSSleSS\runrig'87+'91\Runrig - The Cutter And The Clan.wav

Пиковый уровень 100.0 % Качество диапазона 99.9 % CRC теста 647C1E30 CRC копии 647C1E30 Копирование... OK

Ошибок не произошло

AccurateRip: сводка

Трек 1 точное извлечение (доверие 2) [F7352DF8]Трек 2 точное извлечение (доверие 2) [4707A021]Трек 3 точное извлечение (доверие 2) [128563B4]Трек 4 точное извлечение (доверие 2) [A2BF0986]Трек 5 точное извлечение (доверие 2) [D365434A]Трек 6 точное извлечение (доверие 2) [3BE18BAB]Трек 7 точное извлечение (доверие 2) [BE8ACC22]Трек 8 точное извлечение (доверие 2) [F03F92A0]Трек 9 точное извлечение (доверие 2) [FD01C111]Трек 10 точное извлечение (доверие 2) [BADB6498]

Все треки извлечены точно

Конец отчётаdisc2:
Exact Audio Copy V0.99 prebeta 4 from 23. January 2008

Отчёт EAC об извлечении, выполненном 16. июля 2012, 19:43

Runrig / The Big Wheel

Дисковод: ASUS DRW-1814BL Adapter: 1 ID: 0

Режим чтения : Достоверность
Использование точного потока : Да
Отключение кэша аудио : Да
Использование указателей C2 : Нет

Коррекция смещения при чтении : 6
Способность читать области Lead-in и Lead-out : Нет
Заполнение пропущенных сэмплов тишиной : Да
Удаление блоков с тишиной в начале и конце : Нет
При вычислениях CRC использовались нулевые сэмплы : Да
Интерфейс : Установленный внешний ASPI-интерфейс

Выходной формат : Пользовательский кодировщик
Выбранный битрейт : 1024 kBit/s
Качество : Высокий
Добавление ID3-тэга : Нет
Утилита сжатия : C:\Program Files\Exact Audio Copy\FLAC\FLAC.EXE
Дополнительные параметры : -6 -V -T "ARTIST=%a" -T "TITLE=%t" -T "ALBUM=%g" -T "DATE=%y" -T "TRACKNUMBER=%n" -T "GENRE=%m" -T "COMMENT=%e" %s -o %d

TOC извлечённого CD

Трек | Старт | Длительность | Начальный сектор | Конечный сектор
---------------------------------------------------------------------
1 | 0:00.00 | 5:09.65 | 0 | 23239
2 | 5:09.65 | 5:34.22 | 23240 | 48311
3 | 10:44.12 | 5:19.03 | 48312 | 72239
4 | 16:03.15 | 5:42.52 | 72240 | 97941
5 | 21:45.67 | 4:15.58 | 97942 | 117124
6 | 26:01.50 | 6:07.65 | 117125 | 144714
7 | 32:09.40 | 5:00.42 | 144715 | 167256
8 | 37:10.07 | 4:27.05 | 167257 | 187286
9 | 41:37.12 | 2:33.05 | 187287 | 198766
10 | 44:10.17 | 7:24.00 | 198767 | 232066

Характеристики диапазона извлечения и сообщения об ошибках

Выбранный диапазон

Имя файла H:\loSSleSS\runrig'87+'91\Runrig - The Big Wheel.wav

Пиковый уровень 100.0 %
Качество диапазона 100.0 %
CRC теста F139715E
CRC копии F139715E
Копирование... OK

Ошибок не произошло

AccurateRip: сводка

Трек 1 точное извлечение (доверие 2) [9426ED35]
Трек 2 точное извлечение (доверие 2) [748921E8]
Трек 3 точное извлечение (доверие 2) [5B595C4A]
Трек 4 точное извлечение (доверие 2) [7C0B35FB]
Трек 5 точное извлечение (доверие 2) [BCBF01B2]
Трек 6 точное извлечение (доверие 2) [2A5135B1]
Трек 7 точное извлечение (доверие 2) [F8A81A17]
Трек 8 точное извлечение (доверие 2) [80104145]
Трек 9 точное извлечение (доверие 2) [33EFF2FE]
Трек 10 точное извлечение (доверие 2) [95D5F88D]

Все треки извлечены точно

Конец отчёта
Runrig – фолк-рок группа из Шотландии. Она была основана в 1973 году, и к 2009 выпустила уже 13 студийных альбомов.В плане музыки Runrig скорее рок команда, но тексты - фолковой направленности. В большинстве песен поется о местах, людях и событиях в Шотландии. Так же популярной темой для текстов являются англо-шотландские отношения, ну и, наконец, тематика некоторых песен – защита природы.Примерно четверть песен группы исполняется на гаэльском.В 1973 Runrig были группой, игравшей на свадьбах. Основатели – братья Рори и Калум МакДональды, а так же их друг Блэр Дуглас (Rory and Calum MacDonald, Blair Douglas). Их первое выступление состоялось в Глазго. Вскоре они перешли от каверов к собственным композициям и в 1978 выпустили дебютный альбом. Пятый альбом 1987 года сделал их популярными.Со времени создания группа претерпела много изменений, но Рори и Калум, сочинители текстов, всегда оставались в ее составе.Сейчас группа наиболее популярна в Великобритании, Дании и Германии. С 1999 она стала известна в Канаде, когда Runrig пригласили канадского вокалиста Брюса Гутро.
Членами группы в настоящий момент являются:
Рори МакДональд бас, вокал, тексты
Калум МакДональд – перкуссия, тексты
Малькольм Джонс – гитара, волынка, аккордеон
Ян Бэйн – барабаны
Брюс Гутро – вокал, гитара
Брайан Харрен – клавишные, вокал
Список студийных альбомов:
Play Gaelic (1978)
The Highland Connection (1979)
Recovery (1981)
Heartland (1985)
The Cutter and the Clan (1987)
Searchlight (1989)
The Big Wheel (1991)
Amazing Things (1993)
Mara (1995)
In Search of Angels (1999)
The Stamping Ground (2001)
Proterra (with Paul Mounsey) (2003)
Everything You See (2007)


Трекер:  [ 16-Июл-2012 20:16 ]

  

Скачать .torrent

Размер .torrent файла 12 KB


Размер: 597 MB
Хэш (hash) релиза: 7a1b082373b2c87028fd0aab7c946595625d56b9

Еще никто не оставлял запись к записи скачать торрент Runrig - The Cutter and the Clan . Будь первым!

!Обратная связь