Скачать через торрент Frank Ocean - channel ORANGE - 2012 ALAC, lossless бесплатно русская версия torrent активатор

Если у вас наблюдаются проблемы со скриншотами, переходом по ссылками, скачиванием торрентов - проблемы в блокировщике рекламы AdBlock. #хорошегоДня!


Статистика раздачи
Размер:  348 MB   |    Зарегистрирован:  5 лет 2 месяца   |    .torrent скачан:  63 раза   |   
Раздают:  1  
   
Загрузка...
 
Автор Сообщение

Galfimbul

avatar Galfimbul


Frank Ocean - channel ORANGE

Год: 2012
Страна: US
Жанр: R`n`B, Neo Soul
Издатель (лейбл): Def Jam
Продолжительность: 1:02:11
Тексты: вшиты
Кодек: ALAC
Программа-риповщик : foobar2000 + iTunes (lossless)
Битрейт: lossless
Треклист:
01 Start 0:46
02 Thinkin Bout You 3:21
03 Fertilizer 0:40
04 Sierra Leone 2:29
05 Sweet Life 4:23
06 Not Just Money 1:00
07 Super Rich Kids (feat. Earl Sweatshirt) 5:05
08 Pilot Jones 3:05
09 Crack Rock 3:44
10 Pyramids 9:54
11 Lost 3:54
12 White (feat. John Mayer) 1:16
13 Monks 3:21
14 Bad Religion 2:55
15 Pink Matter (feat. André 3000) 4:29
16 Forrest Gump 3:15
17 End 8:43
  
X Lossless Decoder version 20120609 (141.0)

XLD extraction logfile from 2012-07-13 18:08:05 -0400

Frank Ocean / Channel Orange

Used drive : MATSHITA DVD-R UJ-898 (revision HC10)

Ripper mode : XLD Secure RipperDisable audio cache : OK for the drive with a cache less than 1375KiBMake use of C2 pointers : NORead offset correction : 102Max retry count : 100Gap status : Analyzed, Appended

TOC of the extracted CD Track | Start | Length | Start sector | End sector --------------------------------------------------------- 1 | 00:00:15 | 00:45:48 | 15 | 3437 2 | 00:45:63 | 03:20:56 | 3438 | 18493 3 | 04:06:44 | 00:39:50 | 18494 | 21468 4 | 04:46:19 | 02:28:57 | 21469 | 32625 5 | 07:15:01 | 04:22:51 | 32626 | 52326 6 | 11:37:52 | 01:00:07 | 52327 | 56833 7 | 12:37:59 | 05:04:57 | 56834 | 79690 8 | 17:42:41 | 03:04:52 | 79691 | 93542 9 | 20:47:18 | 03:44:11 | 93543 | 110353 10 | 24:31:29 | 09:53:43 | 110354 | 154871 11 | 34:24:72 | 03:54:07 | 154872 | 172428 12 | 38:19:04 | 01:16:21 | 172429 | 178149 13 | 39:35:25 | 03:21:13 | 178150 | 193237 14 | 42:56:38 | 02:55:34 | 193238 | 206396 15 | 45:51:72 | 04:28:73 | 206397 | 226569 16 | 50:20:70 | 03:15:16 | 226570 | 241210 17 | 53:36:11 | 08:43:37 | 241211 | 280472

AccurateRip Summary Disc not found in AccurateRip DB.

All Tracks Album gain : -8.31 dB Peak : 1.000000 Statistics Read error : 0 Jitter error (maybe fixed) : 0 Retry sector count : 0 Damaged sector count : 0

Track 01 Filename : /Volumes/VINUSHKA/Channel Orange/01 Start.flac Pre-gap length : 00:02:15

Track gain : -0.97 dB Peak : 0.998535 CRC32 hash (test run) : 7BB1A543 CRC32 hash : 7BB1A543 CRC32 hash (skip zero) : 4DD5B236 AccurateRip v1 signature : CBDAFC0C AccurateRip v2 signature : 9E002FEF ->Track not present in AccurateRip database. Statistics Read error : 0 Jitter error (maybe fixed) : 0 Retry sector count : 0 Damaged sector count : 0

Track 02 Filename : /Volumes/VINUSHKA/Channel Orange/02 Thinkin Bout You.flac

Track gain : -5.32 dB Peak : 1.000000 CRC32 hash (test run) : 8DCE3514 CRC32 hash : 8DCE3514 CRC32 hash (skip zero) : 092B0CFB AccurateRip v1 signature : A03CFD24 AccurateRip v2 signature : 93A2F985 ->Track not present in AccurateRip database. Statistics Read error : 0 Jitter error (maybe fixed) : 0 Retry sector count : 0 Damaged sector count : 0

Track 03 Filename : /Volumes/VINUSHKA/Channel Orange/03 Fertilizer.flac

Track gain : -8.05 dB Peak : 0.919922 CRC32 hash (test run) : 9352DA88 CRC32 hash : 9352DA88 CRC32 hash (skip zero) : 3943F5FC AccurateRip v1 signature : 2D2DA39E AccurateRip v2 signature : BC13C745 ->Track not present in AccurateRip database. Statistics Read error : 0 Jitter error (maybe fixed) : 0 Retry sector count : 0 Damaged sector count : 0

Track 04 Filename : /Volumes/VINUSHKA/Channel Orange/04 Sierra Leone.flac Pre-gap length : 00:00:02

Track gain : -10.19 dB Peak : 1.000000 CRC32 hash (test run) : 9ACEEAD8 CRC32 hash : 9ACEEAD8 CRC32 hash (skip zero) : BCD2AD43 AccurateRip v1 signature : 0E9406F9 AccurateRip v2 signature : FF2F05A9 ->Track not present in AccurateRip database. Statistics Read error : 0 Jitter error (maybe fixed) : 0 Retry sector count : 0 Damaged sector count : 0

Track 05 Filename : /Volumes/VINUSHKA/Channel Orange/05 Sweet Life.flac

Track gain : -10.10 dB Peak : 0.998505 CRC32 hash (test run) : 15BF131C CRC32 hash : 15BF131C CRC32 hash (skip zero) : EF909DAE AccurateRip v1 signature : 7B75A0E0 AccurateRip v2 signature : 1E83D9FB ->Track not present in AccurateRip database. Statistics Read error : 0 Jitter error (maybe fixed) : 0 Retry sector count : 0 Damaged sector count : 0

Track 06 Filename : /Volumes/VINUSHKA/Channel Orange/06 Not Just Money.flac

Track gain : 0.47 dB Peak : 0.603821 CRC32 hash (test run) : EA5E2C14 CRC32 hash : EA5E2C14 CRC32 hash (skip zero) : E0500B83 AccurateRip v1 signature : F1AD2CB6 AccurateRip v2 signature : 7EC85E18 ->Track not present in AccurateRip database. Statistics Read error : 0 Jitter error (maybe fixed) : 0 Retry sector count : 0 Damaged sector count : 0

Track 07 Filename : /Volumes/VINUSHKA/Channel Orange/07 Super Rich Kids (feat. Earl Sweatshirt).flac Pre-gap length : 00:00:25

Track gain : -7.90 dB Peak : 0.998535 CRC32 hash (test run) : 6F2FC89E CRC32 hash : 6F2FC89E CRC32 hash (skip zero) : 868B9E8B AccurateRip v1 signature : A36D0CBD AccurateRip v2 signature : 2B5A075E ->Track not present in AccurateRip database. Statistics Read error : 0 Jitter error (maybe fixed) : 0 Retry sector count : 0 Damaged sector count : 0

Track 08 Filename : /Volumes/VINUSHKA/Channel Orange/08 Pilot Jones.flac

Track gain : -3.72 dB Peak : 0.998535 CRC32 hash (test run) : 5647526F CRC32 hash : 5647526F CRC32 hash (skip zero) : FBB78D99 AccurateRip v1 signature : 47F48161 AccurateRip v2 signature : B1AEFBF7 ->Track not present in AccurateRip database. Statistics Read error : 0 Jitter error (maybe fixed) : 0 Retry sector count : 0 Damaged sector count : 0

Track 09 Filename : /Volumes/VINUSHKA/Channel Orange/09 Crack Rock.flac Pre-gap length : 00:00:46

Track gain : -7.42 dB Peak : 1.000000 CRC32 hash (test run) : 0F8FA9F6 CRC32 hash : 0F8FA9F6 CRC32 hash (skip zero) : BFF01600 AccurateRip v1 signature : AEE60434 AccurateRip v2 signature : 850E46F4 ->Track not present in AccurateRip database. Statistics Read error : 0 Jitter error (maybe fixed) : 0 Retry sector count : 0 Damaged sector count : 0

Track 10 Filename : /Volumes/VINUSHKA/Channel Orange/10 Pyramids.flac

Track gain : -8.56 dB Peak : 1.000000 CRC32 hash (test run) : 34067561 CRC32 hash : 34067561 CRC32 hash (skip zero) : 0C0A0628 AccurateRip v1 signature : 44E9CDE7 AccurateRip v2 signature : 7FDBBAFE ->Track not present in AccurateRip database. Statistics Read error : 0 Jitter error (maybe fixed) : 0 Retry sector count : 0 Damaged sector count : 0

Track 11 Filename : /Volumes/VINUSHKA/Channel Orange/11 Lost.flac Pre-gap length : 00:00:49

Track gain : -8.88 dB Peak : 1.000000 CRC32 hash (test run) : 93AE3FAD CRC32 hash : 93AE3FAD CRC32 hash (skip zero) : 09EBDAF7 AccurateRip v1 signature : 8B0129DD AccurateRip v2 signature : 56BE82AC ->Track not present in AccurateRip database. Statistics Read error : 0 Jitter error (maybe fixed) : 0 Retry sector count : 0 Damaged sector count : 0

Track 12 Filename : /Volumes/VINUSHKA/Channel Orange/12 White (feat. John Mayer).flac

Track gain : -4.20 dB Peak : 0.998535 CRC32 hash (test run) : FE593D34 CRC32 hash : FE593D34 CRC32 hash (skip zero) : 6AE18A1A AccurateRip v1 signature : F0FB4CA1 AccurateRip v2 signature : B3CD65A4 ->Track not present in AccurateRip database. Statistics Read error : 0 Jitter error (maybe fixed) : 0 Retry sector count : 0 Damaged sector count : 0

Track 13 Filename : /Volumes/VINUSHKA/Channel Orange/13 Monks.flac

Track gain : -9.27 dB Peak : 1.000000 CRC32 hash (test run) : 04BCA2BE CRC32 hash : 04BCA2BE CRC32 hash (skip zero) : 64ED3F9E AccurateRip v1 signature : A9CD5FEA AccurateRip v2 signature : 1E28DC86 ->Track not present in AccurateRip database. Statistics Read error : 0 Jitter error (maybe fixed) : 0 Retry sector count : 0 Damaged sector count : 0

Track 14 Filename : /Volumes/VINUSHKA/Channel Orange/14 Bad Religion.flac Pre-gap length : 00:00:70

Track gain : -8.91 dB Peak : 0.990662 CRC32 hash (test run) : 0B2548E4 CRC32 hash : 0B2548E4 CRC32 hash (skip zero) : 63C2A5C2 AccurateRip v1 signature : A4152771 AccurateRip v2 signature : 5E1B7C2E ->Track not present in AccurateRip database. Statistics Read error : 0 Jitter error (maybe fixed) : 0 Retry sector count : 0 Damaged sector count : 0

Track 15 Filename : /Volumes/VINUSHKA/Channel Orange/15 Pink Matter (feat. André 3000).flac

Track gain : -7.78 dB Peak : 1.000000 CRC32 hash (test run) : E4626D9E CRC32 hash : E4626D9E CRC32 hash (skip zero) : 57DE96D7 AccurateRip v1 signature : 3A11F658 AccurateRip v2 signature : 89D88E60 ->Track not present in AccurateRip database. Statistics Read error : 0 Jitter error (maybe fixed) : 0 Retry sector count : 0 Damaged sector count : 0

Track 16 Filename : /Volumes/VINUSHKA/Channel Orange/16 Forrest Gump.flac Pre-gap length : 00:00:12

Track gain : -5.90 dB Peak : 0.992126 CRC32 hash (test run) : E8B7CFBB CRC32 hash : E8B7CFBB CRC32 hash (skip zero) : 3D7D5A12 AccurateRip v1 signature : C98FA0F2 AccurateRip v2 signature : 283BFCBF ->Track not present in AccurateRip database. Statistics Read error : 0 Jitter error (maybe fixed) : 0 Retry sector count : 0 Damaged sector count : 0

Track 17 Filename : /Volumes/VINUSHKA/Channel Orange/17 End.flac Pre-gap length : 00:00:28

Track gain : -6.17 dB Peak : 0.998535 CRC32 hash (test run) : 6BF65BA8 CRC32 hash : 6BF65BA8 CRC32 hash (skip zero) : 584EED99 AccurateRip v1 signature : 89969A06 AccurateRip v2 signature : 1C829BA8 ->Track not present in AccurateRip database. Statistics Read error : 0 Jitter error (maybe fixed) : 0 Retry sector count : 0 Damaged sector count : 0

No errors occurred

End of status report


Трекер:  [ 30-Июл-2012 13:51 ]

  

Скачать .torrent

Размер .torrent файла 15 KB


Размер: 348 MB
Хэш (hash) релиза: af098b1a91c7d8c68f0f65d40f92507e63c15e65

Еще никто не оставлял запись к записи скачать торрент Frank Ocean - channel ORANGE - 2012 ALAC, lossless . Будь первым!

!Обратная связь