Скачать через торрент музыку Wild Frontier - 2012 - 2012, FLAC бесплатно без регистрации torrent

Если у вас наблюдаются проблемы со скриншотами, переходом по ссылками, скачиванием торрентов - проблемы в блокировщике рекламы AdBlock. #хорошегоДня!


Статистика раздачи
Размер:  357 MB   |    Зарегистрирован:  5 лет 3 месяца   |    .torrent скачан:  29 раз   |   
Раздают:  1  
   
Загрузка...
 
Автор Сообщение

Galfimbul

avatar Galfimbul


Wild Frontier / 2012

Жанр: Melodic Hard Rock
Страна-производитель диска: Пиратка
Год издания: 2012
Издатель (лейбл): Prime Entertainment
Страна: Germany
Аудиокодек: FLAC (*.flac)
Тип рипа: tracks+.cue
Битрейт аудио: lossless
Продолжительность: 50:07
Источник (релизер): Мой рип
Наличие сканов в содержимом раздачи: да
Треклист:
01 2012
02 To The End Of The World
03 It's All Over Now
04 Another Lonely Day Without You
05 Why Don't You Save Me
06 Stay Tough
07 Favorite
08 It's All Up To You
09 Tonight Tonight Tonight
10 Can't You Hear Me Calling
11 Long Gone
12 Why Are The Good Things Too Hard To Find
13 Gimme Gimme Gimme
  
Exact Audio Copy V1.0 beta 3 from 29. August 2011

Отчёт EAC об извлечении, выполненном 10. июля 2012, 22:43

Wild Frontier / 2012

Дисковод: HL-DT-STDVDRAM GH24NS50 Adapter: 3 ID: 1

Режим чтения : ДостоверностьИспользование точного потока : ДаОтключение кэша аудио : ДаИспользование указателей C2 : Нет

Коррекция смещения при чтении : 667Способность читать области Lead-in и Lead-out : НетЗаполнение пропущенных сэмплов тишиной : ДаУдаление блоков с тишиной в начале и конце : НетПри вычислениях CRC использовались нулевые сэмплы : ДаИнтерфейс : Встроенный Win32-интерфейс для Win NT/2000Обработка зазоров : Добавлено к предыдущему треку

Выходной формат : Пользовательский кодировщикВыбранный битрейт : 896 kBit/sКачество : ВысокийДобавление ID3-тега : НетУтилита сжатия : C:\Users\Alex\Desktop\EAC_1.0_beta_3_Portable_Multilingual\App\EAC\FLAC\flac.exeДополнительные параметры : -6 -V -T "ARTIST=%artist%" -T "TITLE=%title%" -T "ALBUM=%albumtitle%" -T "DATE=%year%" -T "TRACKNUMBER=%tracknr%" -T "GENRE=%genre%" -T "COMMENT=%comment%" %hascover%--picture="%coverfile%"%hascover% %source% -o %dest%

TOC извлечённого CD

Трек | Старт | Длительность | Начальный сектор | Конечный сектор --------------------------------------------------------------------- 1 | 0:00.00 | 0:33.57 | 0 | 2531 2 | 0:33.57 | 3:31.20 | 2532 | 18376 3 | 4:05.02 | 4:06.16 | 18377 | 36842 4 | 8:11.18 | 4:13.00 | 36843 | 55817 5 | 12:24.18 | 4:39.02 | 55818 | 76744 6 | 17:03.20 | 3:54.59 | 76745 | 94353 7 | 20:58.04 | 4:26.17 | 94354 | 114320 8 | 25:24.21 | 4:20.25 | 114321 | 133845 9 | 29:44.46 | 4:15.37 | 133846 | 153007 10 | 34:00.08 | 4:47.20 | 153008 | 174552 11 | 38:47.28 | 3:13.10 | 174553 | 189037 12 | 42:00.38 | 4:27.16 | 189038 | 209078 13 | 46:27.54 | 3:39.65 | 209079 | 225568

Трек 1

Имя файла C:\Users\Alex\Desktop\РИП\01 2012.wav

Длина предзазора 0:00:02.00

Пиковый уровень 94.4 % Скорость извлечения 0.5 X Качество трека 100.0 % CRC теста A4CB4A25 CRC копии A4CB4A25 Точность не определена (достоверность 1) [8219D238], AccurateRip вернул [722BD9A8] (AR v2) Копирование... OK

Трек 2

Имя файла C:\Users\Alex\Desktop\РИП\02 To The End Of The World.wav

Пиковый уровень 94.4 % Скорость извлечения 1.1 X Качество трека 100.0 % CRC теста DD4328EF CRC копии DD4328EF Точность не определена (достоверность 1) [4E1CE956], AccurateRip вернул [5FFDC76D] (AR v2) Копирование... OK

Трек 3

Имя файла C:\Users\Alex\Desktop\РИП\03 It's All Over Now.wav

Пиковый уровень 94.4 % Скорость извлечения 1.2 X Качество трека 100.0 % CRC теста 222B4E7E CRC копии 222B4E7E Точность не определена (достоверность 1) [52C7C132], AccurateRip вернул [C8E777C3] (AR v2) Копирование... OK

Трек 4

Имя файла C:\Users\Alex\Desktop\РИП\04 Another Lonely Day Without You.wav

Пиковый уровень 94.4 % Скорость извлечения 1.4 X Качество трека 100.0 % CRC теста 61815F36 CRC копии 61815F36 Точность не определена (достоверность 1) [DEE545A5], AccurateRip вернул [F623AFBA] (AR v2) Копирование... OK

Трек 5

Имя файла C:\Users\Alex\Desktop\РИП\05 Why Don't You Save Me.wav

Пиковый уровень 94.4 % Скорость извлечения 1.5 X Качество трека 100.0 % CRC теста 8BA63785 CRC копии 8BA63785 Точность не определена (достоверность 1) [EE044F89], AccurateRip вернул [7E018605] (AR v2) Копирование... OK

Трек 6

Имя файла C:\Users\Alex\Desktop\РИП\06 Stay Tough.wav

Длина предзазора 0:00:01.01

Пиковый уровень 94.4 % Скорость извлечения 1.6 X Качество трека 100.0 % CRC теста C1EBFF88 CRC копии C1EBFF88 Точность не определена (достоверность 1) [CB72BC57], AccurateRip вернул [F1DCFA81] (AR v2) Копирование... OK

Трек 7

Имя файла C:\Users\Alex\Desktop\РИП\07 Favorite.wav

Пиковый уровень 94.4 % Скорость извлечения 1.5 X Качество трека 99.9 % CRC теста A3C3F739 CRC копии A3C3F739 Точность не определена (достоверность 1) [5923751A], AccurateRip вернул [0F7C3E04] (AR v2) Копирование... OK

Трек 8

Имя файла C:\Users\Alex\Desktop\РИП\08 It's All Up To You.wav

Пиковый уровень 94.4 % Скорость извлечения 1.8 X Качество трека 100.0 % CRC теста D67F9D41 CRC копии D67F9D41 Точность не определена (достоверность 1) [816B5182], AccurateRip вернул [554A3182] (AR v2) Копирование... OK

Трек 9

Имя файла C:\Users\Alex\Desktop\РИП\09 Tonight Tonight Tonight.wav

Пиковый уровень 94.4 % Скорость извлечения 1.8 X Качество трека 100.0 % CRC теста 7AAD5636 CRC копии 7AAD5636 Точность не определена (достоверность 1) [6E5E1045], AccurateRip вернул [3654EFF9] (AR v2) Копирование... OK

Трек 10

Имя файла C:\Users\Alex\Desktop\РИП\10 Can't You Hear Me Calling.wav

Пиковый уровень 94.4 % Скорость извлечения 2.0 X Качество трека 100.0 % CRC теста 1F362E76 CRC копии 1F362E76 Точность не определена (достоверность 1) [D62F3D1A], AccurateRip вернул [E1ACC576] (AR v2) Копирование... OK

Трек 11

Имя файла C:\Users\Alex\Desktop\РИП\11 Long Gone.wav

Пиковый уровень 94.4 % Скорость извлечения 1.9 X Качество трека 100.0 % CRC теста 86191F2F CRC копии 86191F2F Точность не определена (достоверность 1) [F4E70681], AccurateRip вернул [1E3EECAF] (AR v2) Копирование... OK

Трек 12

Имя файла C:\Users\Alex\Desktop\РИП\12 Why Are The Good Things Too Hard To Find.wav

Пиковый уровень 94.4 % Скорость извлечения 1.8 X Качество трека 99.9 % CRC теста CB9D9CB8 CRC копии CB9D9CB8 Точность не определена (достоверность 1) [F395688F], AccurateRip вернул [6D646256] (AR v2) Копирование... OK

Трек 13

Имя файла C:\Users\Alex\Desktop\РИП\13 Gimme Gimme Gimme.wav

Пиковый уровень 94.4 % Скорость извлечения 2.1 X Качество трека 100.0 % CRC теста 1E72B4DD CRC копии 1E72B4DD Точность не определена (достоверность 1) [37633ABA], AccurateRip вернул [9504354D] (AR v2) Копирование... OK

Ни один трек не прошёл проверки на точностьВ вашей базе может быть иной вариант штамповки диска

Ошибок не произошло

Конец отчёта

==== Контрольная сумма отчёта C178BCDF9171A3E4620950DFF7DEED87E95AED28F309D7226D993052605D7848 ====
  
REM GENRE "Hard Rock"REM DATE 2012REM DISCID AA0BBF0DREM COMMENT "ExactAudioCopy v1.0b3"CATALOG 4018996103779PERFORMER "Wild Frontier"TITLE "2012"FILE "01 2012.wav" WAVE TRACK 01 AUDIO TITLE "2012" PERFORMER "Wild Frontier" ISRC DEKL91200524 INDEX 01 00:00:00FILE "02 To The End Of The World.wav" WAVE TRACK 02 AUDIO TITLE "To The End Of The World" PERFORMER "Wild Frontier" ISRC DEKL91200525 INDEX 01 00:00:00FILE "03 It's All Over Now.wav" WAVE TRACK 03 AUDIO TITLE "It's All Over Now" PERFORMER "Wild Frontier" ISRC DEKL91200526 INDEX 01 00:00:00FILE "04 Another Lonely Day Without You.wav" WAVE TRACK 04 AUDIO TITLE "Another Lonely Day Without You" PERFORMER "Wild Frontier" ISRC DEKL91200527 INDEX 01 00:00:00FILE "05 Why Don't You Save Me.wav" WAVE TRACK 05 AUDIO TITLE "Why Don't You Save Me" PERFORMER "Wild Frontier" ISRC DEKL91200528 INDEX 01 00:00:00 TRACK 06 AUDIO TITLE "Stay Tough" PERFORMER "Wild Frontier" ISRC DEKL91200529 INDEX 00 04:38:01FILE "06 Stay Tough.wav" WAVE INDEX 01 00:00:00FILE "07 Favorite.wav" WAVE TRACK 07 AUDIO TITLE "Favorite" PERFORMER "Wild Frontier" ISRC DEKL91200530 INDEX 01 00:00:00FILE "08 It's All Up To You.wav" WAVE TRACK 08 AUDIO TITLE "It's All Up To You" PERFORMER "Wild Frontier" ISRC DEKL91200531 INDEX 01 00:00:00FILE "09 Tonight Tonight Tonight.wav" WAVE TRACK 09 AUDIO TITLE "Tonight Tonight Tonight" PERFORMER "Wild Frontier" ISRC DEKL91200532 INDEX 01 00:00:00FILE "10 Can't You Hear Me Calling.wav" WAVE TRACK 10 AUDIO TITLE "Can't You Hear Me Calling" PERFORMER "Wild Frontier" ISRC DEKL91200533 INDEX 01 00:00:00FILE "11 Long Gone.wav" WAVE TRACK 11 AUDIO TITLE "Long Gone" PERFORMER "Wild Frontier" ISRC DEKL91200534 INDEX 01 00:00:00FILE "12 Why Are The Good Things Too Hard To Find.wav" WAVE TRACK 12 AUDIO TITLE "Why Are The Good Things Too Hard To Find" PERFORMER "Wild Frontier" ISRC DEKL91200535 INDEX 01 00:00:00FILE "13 Gimme Gimme Gimme.wav" WAVE TRACK 13 AUDIO TITLE "Gimme Gimme Gimme" PERFORMER "Wild Frontier" ISRC DEKL91200536 INDEX 01 00:00:00
Jens Welkenhorst - Lead Vocals, Guitar
Mario Erdmann - Bass, Vocals
Thomas Ellenberger - Keyboards Vocals
Sascha Fahrenbach - Guitar, Vocals, Drums
Nico Fahrenbach - Drums


Трекер:  [ 11-Июл-2012 16:24 ]

  

Скачать .torrent

Размер .torrent файла 15 KB


Размер: 357 MB
Хэш (hash) релиза: 11cde70b238071abcf8ffce8de162a18c859ba86

Еще никто не оставлял запись к записи скачать торрент Wild Frontier - 2012 - 2012, FLAC . Будь первым!

!Обратная связь