Скачать через торрент музыку Canterbury Fair - Canterbury Fair бесплатно без регистрации torrent

Если у вас наблюдаются проблемы со скриншотами, переходом по ссылками, скачиванием торрентов - проблемы в блокировщике рекламы AdBlock. #хорошегоДня!


Статистика раздачи
Размер:  347 MB   |    Зарегистрирован:  5 лет 1 месяц   |    .torrent скачан:  10 раз   |   
Раздают:  1  
   
Загрузка...
 
Автор Сообщение

Galfimbul

avatar Galfimbul


Canterbury Fair / Canterbury Fair (1969)

Жанр: Psychedelic Rock
Страна-производитель диска: USA
Год издания: 1999
Издатель (лейбл): Sundazed
Номер по каталогу: SC 11064
Страна: USA
Аудиокодек: FLAC (*.flac)
Тип рипа: tracks+.cue
Битрейт аудио: lossless
Продолжительность: 51:13
Источник (релизер): what.cd()
Наличие сканов в содержимом раздачи: да
Треклист:
01. Talk Song (6:34)
02. Song on a May Morning (2:56)
03. Acid (3:52)
04. Bad for Anyone (3:39)
05. Russian Opera (3:02)
06. Long Brown Hair (4:21)
07. Winds of the Sky (5:20)
08. A Spanish Seranade (5:51)
09. Sally Rover (10:17)
10. The Man (5:22)
  
Exact Audio Copy V0.99 prebeta 4 from 23. January 2008

EAC extraction logfile from 31. October 2009, 12:22

Canterbury Fair / Canterbury Fair

Used drive : PIONEER DVD-RW DVR-111 Adapter: 1 ID: 0

Read mode : SecureUtilize accurate stream : YesDefeat audio cache : YesMake use of C2 pointers : No

Read offset correction : 48Overread into Lead-In and Lead-Out : NoFill up missing offset samples with silence : YesDelete leading and trailing silent blocks : NoNull samples used in CRC calculations : YesUsed interface : Installed external ASPI interfaceGap handling : Appended to previous track

Used output format : User Defined EncoderSelected bitrate : 128 kBit/sQuality : HighAdd ID3 tag : NoCommand line compressor : C:\Program Files\FLAC\flac.exeAdditional command line options : -V -5 -T "artist=%a" -T "title=%t" -T "album=%g" -T "date=%y" -T "tracknumber=%n" -T "genre=%m" -T comment="%e" -T "comment=Exact Audio Copy (Secure Mode)" %s --verify

TOC of the extracted CD

Track | Start | Length | Start sector | End sector --------------------------------------------------------- 1 | 0:00.00 | 6:33.50 | 0 | 29524 2 | 6:33.50 | 2:55.57 | 29525 | 42706 3 | 9:29.32 | 3:52.18 | 42707 | 60124 4 | 13:21.50 | 3:39.07 | 60125 | 76556 5 | 17:00.57 | 3:01.48 | 76557 | 90179 6 | 20:02.30 | 4:20.42 | 90180 | 109721 7 | 24:22.72 | 5:20.13 | 109722 | 133734 8 | 29:43.10 | 5:51.37 | 133735 | 160096 9 | 35:34.47 | 10:17.00 | 160097 | 206371 10 | 45:51.47 | 5:22.13 | 206372 | 230534

Track 1

Filename D:\letцltйs\+Ъj flac 1\1Kйsz\Canterbury Fair - Canterbury Fair 1969 (flac)\01.wav

Pre-gap length 0:00:02.00

Peak level 100.0 % Track quality 100.0 % Copy CRC 0C6B50EB Copy OK

Track 2

Filename D:\letцltйs\+Ъj flac 1\1Kйsz\Canterbury Fair - Canterbury Fair 1969 (flac)\02.wav

Pre-gap length 0:00:02.00

Peak level 100.0 % Track quality 100.0 % Copy CRC CF73677C Copy OK

Track 3

Filename D:\letцltйs\+Ъj flac 1\1Kйsz\Canterbury Fair - Canterbury Fair 1969 (flac)\03.wav

Pre-gap length 0:00:02.00

Peak level 100.0 % Track quality 100.0 % Copy CRC 69BE180A Copy OK

Track 4

Filename D:\letцltйs\+Ъj flac 1\1Kйsz\Canterbury Fair - Canterbury Fair 1969 (flac)\04.wav

Pre-gap length 0:00:02.00

Peak level 100.0 % Track quality 100.0 % Copy CRC 58C84D05 Copy OK

Track 5

Filename D:\letцltйs\+Ъj flac 1\1Kйsz\Canterbury Fair - Canterbury Fair 1969 (flac)\05.wav

Pre-gap length 0:00:02.00

Peak level 100.0 % Track quality 99.9 % Copy CRC D511B963 Copy OK

Track 6

Filename D:\letцltйs\+Ъj flac 1\1Kйsz\Canterbury Fair - Canterbury Fair 1969 (flac)\06.wav

Pre-gap length 0:00:02.00

Peak level 100.0 % Track quality 100.0 % Copy CRC 3B8EE241 Copy OK

Track 7

Filename D:\letцltйs\+Ъj flac 1\1Kйsz\Canterbury Fair - Canterbury Fair 1969 (flac)\07.wav

Pre-gap length 0:00:02.00

Peak level 100.0 % Track quality 100.0 % Copy CRC 4C7DDF7C Copy OK

Track 8

Filename D:\letцltйs\+Ъj flac 1\1Kйsz\Canterbury Fair - Canterbury Fair 1969 (flac)\08.wav

Pre-gap length 0:00:02.00

Peak level 100.0 % Track quality 100.0 % Copy CRC CA82F628 Copy OK

Track 9

Filename D:\letцltйs\+Ъj flac 1\1Kйsz\Canterbury Fair - Canterbury Fair 1969 (flac)\09.wav

Pre-gap length 0:00:02.00

Peak level 100.0 % Track quality 100.0 % Copy CRC C7788045 Copy OK

Track 10

Filename D:\letцltйs\+Ъj flac 1\1Kйsz\Canterbury Fair - Canterbury Fair 1969 (flac)\10.wav

Pre-gap length 0:00:02.00

Peak level 100.0 % Track quality 100.0 % Copy CRC 6E9741A3 Copy OK

No errors occurred

End of status report
  
REM DATE 1969REM DISCID 780C010AREM COMMENT "ExactAudioCopy v0.99pb4"PERFORMER "Canterbury Fair"TITLE "Canterbury Fair"FILE "01.wav" WAVE TRACK 01 AUDIO TITLE "Talk Song" PERFORMER "Canterbury Fair" FLAGS DCP INDEX 01 00:00:00 TRACK 02 AUDIO TITLE "Song On A May Morning" PERFORMER "Canterbury Fair" FLAGS DCP INDEX 00 06:31:50FILE "02.wav" WAVE INDEX 01 00:00:00 TRACK 03 AUDIO TITLE "Acid " PERFORMER "Canterbury Fair" FLAGS DCP INDEX 00 02:53:57FILE "03.wav" WAVE INDEX 01 00:00:00 TRACK 04 AUDIO TITLE "Bad For Anyone" PERFORMER "Canterbury Fair" FLAGS DCP INDEX 00 03:50:18FILE "04.wav" WAVE INDEX 01 00:00:00 TRACK 05 AUDIO TITLE "Russian Opera" PERFORMER "Canterbury Fair" FLAGS DCP INDEX 00 03:37:07FILE "05.wav" WAVE INDEX 01 00:00:00 TRACK 06 AUDIO TITLE "Long Brown Hair" PERFORMER "Canterbury Fair" FLAGS DCP INDEX 00 02:59:48FILE "06.wav" WAVE INDEX 01 00:00:00 TRACK 07 AUDIO TITLE "Winds Of The Sky" PERFORMER "Canterbury Fair" FLAGS DCP INDEX 00 04:18:42FILE "07.wav" WAVE INDEX 01 00:00:00 TRACK 08 AUDIO TITLE "A Spanish Serenade" PERFORMER "Canterbury Fair" FLAGS DCP INDEX 00 05:18:13FILE "08.wav" WAVE INDEX 01 00:00:00 TRACK 09 AUDIO TITLE "Sally Rover" PERFORMER "Canterbury Fair" FLAGS DCP INDEX 00 05:49:37FILE "09.wav" WAVE INDEX 01 00:00:00 TRACK 10 AUDIO TITLE "The Man" PERFORMER "Canterbury Fair" FLAGS DCP INDEX 00 10:15:00FILE "10.wav" WAVE INDEX 01 00:00:00
The Canterbury Fair was a band from Fresno California that recorded between 1967 to 1969. The band, led by John and Philip Hollingsworth, skillfully employed keyboards and a fuzz bass to create a monstrous epic sound of swirling tapestries of mind-bending music that was way ahead of its time. Canterbury Fair created a sound the was reminiscent of the Doors but contained elements of the Left Banke and Love. The unique thing about this band is that no one played guitar in the band, the entire sound was based around the organ as the lead instrument together with drums bass and vocals.

This collection of 10 songs includes the A-side of the ultra-rare single, "Song On A May Morning" originally released on the small local Koala label as well as the group's never-before-heard full-length album that was recorded but never released and one live track recorded during the band's hey day.


Трекер:  [ 11-Июл-2012 16:24 ]

  

Скачать .torrent

Размер .torrent файла 15 KB


Размер: 347 MB
Хэш (hash) релиза: 03dc09d9acddbdbd26071db4ef6777732618521c

Еще никто не оставлял запись к записи скачать торрент Canterbury Fair - Canterbury Fair . Будь первым!

!Обратная связь