Скачать через торрент музыку Warren S. Richardson Jr. - Warren S. Richardson Jr. бесплатно без регистрации torrent

Если у вас наблюдаются проблемы со скриншотами, переходом по ссылками, скачиванием торрентов - проблемы в блокировщике рекламы AdBlock. #хорошегоДня!


Статистика раздачи
Размер:  281 MB   |    Зарегистрирован:  5 лет 3 месяца   |    .torrent скачан:  22 раза   |   
Раздают:  1  
   
Загрузка...
 
Автор Сообщение

Galfimbul

avatar Galfimbul


Warren S. Richardson Jr. / Warren S. Richardson Jr. (1969)

Жанр: Psychedelic Rock, Hard Blues Rock
Страна-производитель диска: Spain
Год издания: 2008
Издатель (лейбл): Retro Disc International
Номер по каталогу: RDI 33036
Страна: USA
Аудиокодек: FLAC (*.flac)
Тип рипа: tracks+.cue
Битрейт аудио: lossless
Продолжительность: 33:22
Источник (релизер): nelwizard
Наличие сканов в содержимом раздачи: да
Треклист:
01. Reputation (traditional) (6:39)
02. Easy Rider (2:58)
03. Shady Lady (6:55)
04. Wind And Rain (10:28)
05. Stella (3:19)
06. Goin' Home (3:05)
  
Exact Audio Copy V0.99 prebeta 4 from 23. January 2008

EAC extraction logfile from 22. June 2012, 13:33

Warren S. Richardson Jr. / Warren S. Richardson Jr.

Used drive : HL-DT-STDVD-RAM GSA-H58N Adapter: 0 ID: 0

Read mode : SecureUtilize accurate stream : YesDefeat audio cache : YesMake use of C2 pointers : No

Read offset correction : 102Overread into Lead-In and Lead-Out : NoFill up missing offset samples with silence : YesDelete leading and trailing silent blocks : NoNull samples used in CRC calculations : YesUsed interface : Installed external ASPI interfaceGap handling : Appended to previous track

Used output format : User Defined EncoderSelected bitrate : 1024 kBit/sQuality : HighAdd ID3 tag : NoCommand line compressor : C:\Arquivos de programas\Exact Audio Copy\Flac\flac.exeAdditional command line options : -8 -A tukey(0.25) -A gauss(0.1875) -b 4096 -V -T "artist=%a" -T "title=%t" -T "album=%g" -T "date=%y" -T "tracknumber=%n" -T "genre=%m" %s --sector-align

TOC of the extracted CD

Track | Start | Length | Start sector | End sector --------------------------------------------------------- 1 | 0:00.00 | 6:38.64 | 0 | 29913 2 | 6:38.64 | 2:57.39 | 29914 | 43227 3 | 9:36.28 | 6:54.65 | 43228 | 74342 4 | 16:31.18 | 10:27.59 | 74343 | 121426 5 | 26:59.02 | 3:18.42 | 121427 | 136318 6 | 30:17.44 | 3:04.43 | 136319 | 150161

Track 1

Filename C:\Documents and Settings\Nelson\Meus documentos\My EAC\01 - Warren S. Richardson Jr. - Reputation (traditional).wav

Pre-gap length 0:00:02.00

Peak level 97.7 % Track quality 99.9 % Test CRC 01CDA420 Copy CRC 01CDA420 Copy OK

Track 2

Filename C:\Documents and Settings\Nelson\Meus documentos\My EAC\02 - Warren S. Richardson Jr. - Easy Rider.wav

Pre-gap length 0:00:02.01

Peak level 97.7 % Track quality 100.0 % Test CRC D2A086FA Copy CRC D2A086FA Copy OK

Track 3

Filename C:\Documents and Settings\Nelson\Meus documentos\My EAC\03 - Warren S. Richardson Jr. - Shady Lady.wav

Pre-gap length 0:00:01.70

Peak level 97.7 % Track quality 100.0 % Test CRC 71B9189F Copy CRC 71B9189F Copy OK

Track 4

Filename C:\Documents and Settings\Nelson\Meus documentos\My EAC\04 - Warren S. Richardson Jr. - Wind And Rain.wav

Pre-gap length 0:00:01.82

Peak level 97.7 % Track quality 100.0 % Test CRC 32E8FD29 Copy CRC 32E8FD29 Copy OK

Track 5

Filename C:\Documents and Settings\Nelson\Meus documentos\My EAC\05 - Warren S. Richardson Jr. - Stella.wav

Pre-gap length 0:00:01.24

Peak level 97.7 % Track quality 99.9 % Test CRC 2DD5C34B Copy CRC 2DD5C34B Copy OK

Track 6

Filename C:\Documents and Settings\Nelson\Meus documentos\My EAC\06 - Warren S. Richardson Jr. - Goin' Home.wav

Pre-gap length 0:00:01.77

Peak level 97.7 % Track quality 100.0 % Test CRC 77EA7CBE Copy CRC 77EA7CBE Copy OK

No errors occurred

End of status report
  
REM GENRE "Hard Rock"REM DATE 1969REM DISCID 4C07D206REM COMMENT "ExactAudioCopy v0.99pb4"PERFORMER "Warren S. Richardson Jr."TITLE "Warren S. Richardson Jr."FILE "01 - Warren S. Richardson Jr. - Reputation (traditional).wav" WAVE TRACK 01 AUDIO TITLE "Reputation (traditional)" PERFORMER "Warren S. Richardson Jr." FLAGS DCP INDEX 01 00:00:00 TRACK 02 AUDIO TITLE "Easy Rider" PERFORMER "Warren S. Richardson Jr." FLAGS DCP INDEX 00 06:36:63FILE "02 - Warren S. Richardson Jr. - Easy Rider.wav" WAVE INDEX 01 00:00:00 TRACK 03 AUDIO TITLE "Shady Lady" PERFORMER "Warren S. Richardson Jr." FLAGS DCP INDEX 00 02:55:61FILE "03 - Warren S. Richardson Jr. - Shady Lady.wav" WAVE INDEX 01 00:00:00 TRACK 04 AUDIO TITLE "Wind And Rain" PERFORMER "Warren S. Richardson Jr." FLAGS DCP INDEX 00 06:53:03FILE "04 - Warren S. Richardson Jr. - Wind And Rain.wav" WAVE INDEX 01 00:00:00 TRACK 05 AUDIO TITLE "Stella" PERFORMER "Warren S. Richardson Jr." FLAGS DCP INDEX 00 10:26:41FILE "05 - Warren S. Richardson Jr. - Stella.wav" WAVE INDEX 01 00:00:00 TRACK 06 AUDIO TITLE "Goin' Home" PERFORMER "Warren S. Richardson Jr." FLAGS DCP INDEX 00 03:16:59FILE "06 - Warren S. Richardson Jr. - Goin' Home.wav" WAVE INDEX 01 00:00:00
A bunch of on-line references question whether Warren S. Richardson Jr. is in fact former Tubes guitarist Bill Spooner. Given that Spooner’s website includes the album in its discography section I’d say the answer is yes. By the way, here’s the link to his website: http://www.billspooner.com.

As a word of warning, anyone expecting to hear something along the same lines as The Tubes patented weirdness is going to be majorly disappointed by this album …

In 1967 Richardson-nee Spooner contributed lead guitar to Michael Condello’s “Condello” LP. A couple of years later Condello apparently repaid the favour by producing 1969′s cleverly-titled “Warren S. Richardson Jr.”.

Richardson was credited with penning all six tracks and material like ‘Reputation” and ‘Shady Lady’ offered up a pretty good set of fuzz-propelled hard rock.

Mind you, nothing here is particularly original and you may well feel like you’ve heard some of this stuff elsewhere, but Spooner had a voice that was well suited to the genre and this was one of those rare albums that actually seemed to benefit from the addition of horns (courtesy of Owen Eugene Hale, Richard Lewis and Joseph Ray Trainer).

In case anyone cared, perhaps because it strayed a little bit from the predominantly hard rock formula, excluding the needless and seemingly endless drum solo, the psych-tinged ‘Wind and Rain’ struck me as the standout effort on the album.
Line-up / Musicians:

*David Birkett -- bass
*Mickey McGee -- drums
*Owen Eugene Hale -- sax
*Richard Lewis -- keyboards, horns
*Warren S. Richardson Jr. (aka Bill Spooner) -- vocals, guitar
*Joseph Ray Trainer -- sax


Трекер:  [ 11-Июл-2012 16:24 ]

  

Скачать .torrent

Размер .torrent файла 12 KB


Размер: 281 MB
Хэш (hash) релиза: a532cee260884948190e1cb6ff4fe8c202abd8bf

Еще никто не оставлял запись к записи скачать торрент Warren S. Richardson Jr. - Warren S. Richardson Jr. . Будь первым!

!Обратная связь