Скачать через торрент музыку Orange Bicycle - Orange Bicycle бесплатно без регистрации torrent

Если у вас наблюдаются проблемы со скриншотами, переходом по ссылками, скачиванием торрентов - проблемы в блокировщике рекламы AdBlock. #хорошегоДня!


Статистика раздачи
Размер:  351 MB   |    Зарегистрирован:  5 лет 1 месяц   |    .torrent скачан:  35 раз   |   
Раздают:  1  
   
Загрузка...
 
Автор Сообщение

Galfimbul

avatar Galfimbul


Orange Bicycle / Orange Bicycle (1970)

Жанр: Psychedelic Rock, Psychedelic Pop, Classic Rock
Страна-производитель диска: Japan
Год издания: 2006
Издатель (лейбл): Air Mail
Номер по каталогу: ARIAC-1197
Страна: UK
Аудиокодек: FLAC (*.flac)
Тип рипа: image+.cue
Битрейт аудио: lossless
Продолжительность: 59:33
Источник (релизер): arktik
Наличие сканов в содержимом раздачи: да
Треклист:
01. Lady Samantha (3:34)
02. Country Comforts (3:15)
03. The Sweet Thing Is (2:17)
04. Make It Rain (4:07)
05. Say You Don't Mind (2:58)
06. Hallelujah Moon (3:29)
07. Jelly On The Bread (3:52)
08. Take Me To The Pilot (3:05)
09. Come To Tomorrow Morning (4:12)
10. Back (3:37)
11. Tonight I'll Be Staying Here With You (4:32)
Bonus tracks
12. Hyacinth Threads (Bonus Track) (2:56)
13. Amy Peate (Bonus Track) (2:09)
14. Laura's Garden (Bonus Track) (3:17)
15. Lavender Girl (Bonus Track) (2:22)
16. Jenskadajaka (Bonus Track) (3:33)
17. Sing This Song All Together (Bonus Track) (2:42)
18. Trip On An Orange Bicycle (Bonus Track) (3:37)
  
Exact Audio Copy V1.0 beta 1 from 15. November 2010

EAC extraction logfile from 16. December 2011, 6:34

Orange Bicycle / Orange Bicycle

Used drive : PIONEER DVD-RW DVR-215D Adapter: 0 ID: 1

Read mode : SecureUtilize accurate stream : YesDefeat audio cache : YesMake use of C2 pointers : No

Read offset correction : 48Overread into Lead-In and Lead-Out : NoFill up missing offset samples with silence : YesDelete leading and trailing silent blocks : NoNull samples used in CRC calculations : YesUsed interface : Native Win32 interface for Win NT & 2000

Used output format : User Defined EncoderSelected bitrate : 128 kBit/sQuality : HighAdd ID3 tag : NoCommand line compressor : C:\Program Files\Exact Audio Copy\Flac\flac.exeAdditional command line options : -8 -V %s

TOC of the extracted CD

Track | Start | Length | Start sector | End sector --------------------------------------------------------- 1 | 0:00.00 | 3:34.22 | 0 | 16071 2 | 3:34.22 | 3:15.01 | 16072 | 30697 3 | 6:49.23 | 2:17.37 | 30698 | 41009 4 | 9:06.60 | 4:07.13 | 41010 | 59547 5 | 13:13.73 | 2:57.56 | 59548 | 72878 6 | 16:11.54 | 3:28.43 | 72879 | 88521 7 | 19:40.22 | 3:52.28 | 88522 | 105949 8 | 23:32.50 | 3:04.56 | 105950 | 119805 9 | 26:37.31 | 4:12.02 | 119806 | 138707 10 | 30:49.33 | 3:37.16 | 138708 | 154998 11 | 34:26.49 | 4:32.05 | 154999 | 175403 12 | 38:58.54 | 2:55.59 | 175404 | 188587 13 | 41:54.38 | 2:08.73 | 188588 | 198260 14 | 44:03.36 | 3:16.64 | 198261 | 213024 15 | 47:20.25 | 2:21.64 | 213025 | 223663 16 | 49:42.14 | 3:33.18 | 223664 | 239656 17 | 53:15.32 | 2:41.62 | 239657 | 251793 18 | 55:57.19 | 3:36.38 | 251794 | 268031

Range status and errors

Selected range

Filename C:\Program Files\Exact Audio Copy\Flac\Orange Bicycle - Orange Bicycle.wav

Peak level 96.6 % Extraction speed 0.3 X Range quality 100.0 % Test CRC 14471185 Copy CRC 14471185 Copy OK

No errors occurred

AccurateRip summary

Track 1 not present in databaseTrack 2 not present in databaseTrack 3 not present in databaseTrack 4 not present in databaseTrack 5 not present in databaseTrack 6 not present in databaseTrack 7 not present in databaseTrack 8 not present in databaseTrack 9 not present in databaseTrack 10 not present in databaseTrack 11 not present in databaseTrack 12 not present in databaseTrack 13 not present in databaseTrack 14 not present in databaseTrack 15 not present in databaseTrack 16 not present in databaseTrack 17 not present in databaseTrack 18 not present in database

None of the tracks are present in the AccurateRip database

End of status report

==== Log checksum E64539F36AE12DE7F99B26472027D1166D080C096D729A4CA32D213C743ED752 ====
Orange Bicycle were an English Psychedelic pop band, which existed from 1967 to 1971. The band played a style influenced by The Beach Boys, The Beatles, The Rolling Stones and the hippie culture. They also acted as support and backing band for the duo Paul and Barry Ryan.
“ Starting life as a skiffle group from Crouch End London in 1959, the start of the rock ‘n' roll movement at the 2 I’s and other coffee bars in Soho, convinced the group to move to electric guitars and drums becoming 'Robb Storm and Whispers' in the transition.
In 1960 the group won a recording contract with Decca having impressed at a competition called the Soho Fair. The group recorded several singles for the label without much success although their live performances were highly praised and they continued to tour the U.K.
Early members of the group were Rob Scales (lead vocals) Jim St. Pier (saxophone) Chuck Hardy (Guitar) Gary Hooper (Bass) and Lewis Collins (Bass) who later went on to gain fame in the TV series The Professionals.
The group continued to tour throughout the sixties recording singles for Columbia and Piccadilly and through their live sessions gaining much approval for their performances at Colleges and Universities in the U.K. In 1964, Rob Storm and the Whispers were widely acknowledged as being the first rock/pop band to play behind the Iron Curtain, touring Poland with Helen Shapiro. Later as fashions changed they morphed into The Rob Storm Group, finally when the psychedelic revolution arrived they renamed to Orange Bicycle. In 1966 they covered the Beach Boys track, "Here Today".
The first single from Orange Bicycle, "Hyacinth Threads", was a #1 hit single in France, and quite successful in some other European countries. It was their best known recording, and has appeared on numerous compilations.
In 1968 the band started to cover The Rolling Stones' "Sing This All Together". The same year they performed at the Isle of Wight Festival on a line up that included Jefferson Airplane, The Move, T-Rex, Fairport Convention, The Crazy World of Arthur Brown and the Pretty Things. In July 1969, they appeared on BBC Two's television programme, Colour Me Pop. Their most successful album, Orange Bicycle, included covers of "Carry That Weight", "Tonight I'll Be Staying Here With You", "Say You Don't Mind" and "Take Me to the Pilot".
In 1971, the band broke up. ”
CD, Back


Трекер:  [ 11-Июл-2012 16:24 ]

  

Скачать .torrent

Размер .torrent файла 15 KB


Размер: 351 MB
Хэш (hash) релиза: 8eeef10ddb00b3d74b717eb4b961de3b68401cb2

Еще никто не оставлял запись к записи скачать торрент Orange Bicycle - Orange Bicycle . Будь первым!

!Обратная связь