Скачать через торрент музыку UFO 1997-The X Factor - Out There... And Back! бесплатно без регистрации torrent

Если у вас наблюдаются проблемы со скриншотами, переходом по ссылками, скачиванием торрентов - проблемы в блокировщике рекламы AdBlock. #хорошегоДня!


Статистика раздачи
Размер:  969 MB   |    Зарегистрирован:  5 лет 1 месяц   |    .torrent скачан:  13 раз   |   
Раздают:  1  
   
Загрузка...
 
Автор Сообщение

Galfimbul

avatar Galfimbul


1997-The X Factor - Out There... And Back!
[2CD, Snapper SMDCD 122, UK]

Жанр: Hard Rock
Страна исполнителя: United Kingdom
Страна-производитель диска: United Kingdom
Год издания альбома: 1997
Издатель (лейбл): Snapper Music / Recall
Номер по каталогу: SMDCD 122
Аудио кодек: FLAC (*.flac)
Тип рипа: image+.cue
Битрейт аудио: lossless
Продолжительность: 1:07:45 + 1:16:07 = 2:23:52
Источник (релизер): edenika (NetLab)
Наличие сканов в содержимом раздачи:
CD1:
01. Unidentified Flying Object (2:20)
02. Boogie For George (4:19)
03. C'mon Everybody (3:14)
04. Shake It About (3:49)
05. (Come Away) Melinda (5:07)
06. Follow You Home (2:15)
07. Who Do You Love (7:51)
08. Evil (3:31)
09. Silver Bird (6:55)
10. Star Storm (18:56)
11. Prince Kajuko (3:58)
12. Lovin' Cup (Live) (5:31)

CD2:
01. One Of Those Nights (4:14)
02. Ain't Life Sweet (3:43)
03. Borderline (5:18)
04. She's The One (3:46)
05. Running Up The Highway (4:41)
06. Back Door Man (5:09)
07. Let The Good Time Roll (4:15)
08. Too Hot To Handle (Live) (4:02)
09. Cherry (Live) (4:12)
10. Love To Love (Live) (8:10)
11. Only You Can Rock Me (Live) (4:07)
12. Lights Out (Live) (6:31)
13. Doctor Doctor (Live) (8:17)
14. Rock Bottom (Live) (9:41)
  
Exact Audio Copy V1.0 beta 3 from 29. August 2011

EAC extraction logfile from 3. July 2012, 15:02

UFO / The X Factor - Out There... And Back! (CD 1)

Used drive : HL-DT-STDVDRAM GH22NS50 Adapter: 1 ID: 1

Read mode : SecureUtilize accurate stream : YesDefeat audio cache : YesMake use of C2 pointers : No

Read offset correction : 667Overread into Lead-In and Lead-Out : NoFill up missing offset samples with silence : YesDelete leading and trailing silent blocks : NoNull samples used in CRC calculations : YesUsed interface : Native Win32 interface for Win NT & 2000

Used output format : Internal WAV RoutinesSample format : 44.100 Hz; 16 Bit; Stereo

TOC of the extracted CD

Track | Start | Length | Start sector | End sector --------------------------------------------------------- 1 | 0:00.00 | 2:19.57 | 0 | 10481 2 | 2:19.57 | 4:19.30 | 10482 | 29936 3 | 6:39.12 | 3:13.65 | 29937 | 44476 4 | 9:53.02 | 3:49.23 | 44477 | 61674 5 | 13:42.25 | 5:06.62 | 61675 | 84686 6 | 18:49.12 | 2:15.05 | 84687 | 94816 7 | 21:04.17 | 7:50.60 | 94817 | 130126 8 | 28:55.02 | 3:30.55 | 130127 | 145931 9 | 32:25.57 | 6:55.13 | 145932 | 177069 10 | 39:20.70 | 18:55.70 | 177070 | 262264 11 | 58:16.65 | 3:57.50 | 262265 | 280089 12 | 62:14.40 | 5:30.70 | 280090 | 304909

Range status and errors

Selected range

Filename C:\Music CD\UFO - The X Factor - Out There... And Back! (CD 1).wav

Peak level 99.8 % Extraction speed 2.0 X Range quality 99.9 % Test CRC 556EEFED Copy CRC E9405ABA Copy OK

No errors occurred

AccurateRip summary

Track 1 accurately ripped (confidence 1) [0527C7AD] (AR v1)Track 2 accurately ripped (confidence 1) [34C2ACCE] (AR v1)Track 3 accurately ripped (confidence 1) [1F0507F7] (AR v1)Track 4 accurately ripped (confidence 1) [480B1118] (AR v1)Track 5 accurately ripped (confidence 1) [7B307149] (AR v1)Track 6 accurately ripped (confidence 1) [5C1F40EA] (AR v1)Track 7 accurately ripped (confidence 1) [2A35E811] (AR v1)Track 8 accurately ripped (confidence 1) [E925D944] (AR v1)Track 9 accurately ripped (confidence 1) [53F2A505] (AR v1)Track 10 accurately ripped (confidence 1) [BC2E955C] (AR v1)Track 11 accurately ripped (confidence 1) [A0E2D1AB] (AR v1)Track 12 accurately ripped (confidence 1) [E3429245] (AR v1)

All tracks accurately ripped

End of status report

==== Log checksum 41C0A5B08739FC0116B8BBB2168C83F44E6437847F0DD932E0B76F433DFF8877 ====
  
Exact Audio Copy V1.0 beta 3 from 29. August 2011

EAC extraction logfile from 3. July 2012, 19:25

UFO / The X Factor - Out There... And Back! (CD 2)

Used drive : HL-DT-STDVDRAM GH22NS50 Adapter: 1 ID: 1

Read mode : SecureUtilize accurate stream : YesDefeat audio cache : YesMake use of C2 pointers : No

Read offset correction : 667Overread into Lead-In and Lead-Out : NoFill up missing offset samples with silence : YesDelete leading and trailing silent blocks : NoNull samples used in CRC calculations : YesUsed interface : Native Win32 interface for Win NT & 2000

Used output format : Internal WAV RoutinesSample format : 44.100 Hz; 16 Bit; Stereo

TOC of the extracted CD

Track | Start | Length | Start sector | End sector --------------------------------------------------------- 1 | 0:00.00 | 4:13.57 | 0 | 19031 2 | 4:13.57 | 3:43.33 | 19032 | 35789 3 | 7:57.15 | 5:18.20 | 35790 | 59659 4 | 13:15.35 | 3:46.37 | 59660 | 76646 5 | 17:01.72 | 4:41.00 | 76647 | 97721 6 | 21:42.72 | 5:08.48 | 97722 | 120869 7 | 26:51.45 | 4:15.30 | 120870 | 140024 8 | 31:07.00 | 4:02.20 | 140025 | 158194 9 | 35:09.20 | 4:12.17 | 158195 | 177111 10 | 39:21.37 | 8:10.20 | 177112 | 213881 11 | 47:31.57 | 4:06.48 | 213882 | 232379 12 | 51:38.30 | 6:30.42 | 232380 | 261671 13 | 58:08.72 | 8:17.20 | 261672 | 298966 14 | 66:26.17 | 9:40.65 | 298967 | 342531

Range status and errors

Selected range

Filename C:\Music CD\UFO - The X Factor - Out There... And Back! (CD 2).wav

Peak level 100.0 % Extraction speed 2.1 X Range quality 100.0 % Test CRC F34B5A96 Copy CRC F34B5A96 Copy OK

No errors occurred

AccurateRip summary

Track 1 accurately ripped (confidence 1) [40D6688E] (AR v1)Track 2 accurately ripped (confidence 1) [CA50EAF3] (AR v1)Track 3 accurately ripped (confidence 1) [85C705D0] (AR v1)Track 4 accurately ripped (confidence 1) [394B6AF0] (AR v1)Track 5 accurately ripped (confidence 1) [DAD728E2] (AR v1)Track 6 accurately ripped (confidence 1) [447E592E] (AR v1)Track 7 accurately ripped (confidence 1) [0AE89E51] (AR v1)Track 8 accurately ripped (confidence 1) [2809FEB6] (AR v1)Track 9 accurately ripped (confidence 1) [33D9CDAE] (AR v1)Track 10 accurately ripped (confidence 1) [1D1678D0] (AR v1)Track 11 accurately ripped (confidence 1) [9C09BBEC] (AR v1)Track 12 accurately ripped (confidence 1) [A218FF09] (AR v1)Track 13 accurately ripped (confidence 1) [37B2F70F] (AR v1)Track 14 accurately ripped (confidence 1) [CE767A7E] (AR v1)

All tracks accurately ripped

End of status report

==== Log checksum 642142AF855DBF1C5169D85CCE348BA0705AD7512606F9FC097BC6F61D3CF846 ====
  
REM GENRE "Hard Rock"REM DATE 1997REM DISCID A20FE10CREM COMMENT "ExactAudioCopy v1.0b3"REM ACCURATERIPID 0018d165-00f5b995-a20fe10cCATALOG 636551412223REM DISCNUMBER 1REM TOTALDISCS 2PERFORMER "UFO"TITLE "The X Factor - Out There... And Back! (CD 1)"FILE "UFO - The X Factor - Out There... And Back! (CD1).flac" WAVE TRACK 01 AUDIO TITLE "Unidentified Flying Object" PERFORMER "UFO" INDEX 01 00:00:00 TRACK 02 AUDIO TITLE "Boogie For George" PERFORMER "UFO" INDEX 00 02:17:02 INDEX 01 02:19:57 TRACK 03 AUDIO TITLE "C'mon Everybody" PERFORMER "UFO" INDEX 00 06:36:32 INDEX 01 06:39:12 TRACK 04 AUDIO TITLE "Shake It About" PERFORMER "UFO" INDEX 00 09:50:22 INDEX 01 09:53:02 TRACK 05 AUDIO TITLE "(Come Away) Melinda" PERFORMER "UFO" INDEX 00 13:39:45 INDEX 01 13:42:25 TRACK 06 AUDIO TITLE "Follow You Home" PERFORMER "UFO" INDEX 00 18:46:32 INDEX 01 18:49:12 TRACK 07 AUDIO TITLE "Who Do You Love" PERFORMER "UFO" INDEX 00 21:01:37 INDEX 01 21:04:17 TRACK 08 AUDIO TITLE "Evil" PERFORMER "UFO" INDEX 00 28:52:22 INDEX 01 28:55:02 TRACK 09 AUDIO TITLE "Silver Bird" PERFORMER "UFO" INDEX 00 32:23:02 INDEX 01 32:25:57 TRACK 10 AUDIO TITLE "Star Storm" PERFORMER "UFO" INDEX 00 39:18:15 INDEX 01 39:20:70 TRACK 11 AUDIO TITLE "Prince Kajuko" PERFORMER "UFO" INDEX 00 58:14:10 INDEX 01 58:16:65 TRACK 12 AUDIO TITLE "Lovin' Cup (Live)" PERFORMER "UFO" INDEX 00 62:11:60 INDEX 01 62:14:40
  
REM GENRE "Hard Rock"REM DATE 1997REM DISCID BF11D70EREM COMMENT "ExactAudioCopy v1.0b3"REM ACCURATERIPID 00221876-0174078b-bf11d70eCATALOG 636551412223REM DISCNUMBER 2REM TOTALDISCS 2PERFORMER "UFO"TITLE "The X Factor - Out There... And Back! (CD 2)"FILE "UFO - The X Factor - Out There... And Back! (CD2).flac" WAVE TRACK 01 AUDIO TITLE "One Of Those Nights" PERFORMER "UFO" INDEX 01 00:00:00 TRACK 02 AUDIO TITLE "Ain't Life Sweet" PERFORMER "UFO" INDEX 00 04:11:02 INDEX 01 04:13:57 TRACK 03 AUDIO TITLE "Borderline" PERFORMER "UFO" INDEX 00 07:54:35 INDEX 01 07:57:15 TRACK 04 AUDIO TITLE "She's The One" PERFORMER "UFO" INDEX 00 13:12:55 INDEX 01 13:15:35 TRACK 05 AUDIO TITLE "Running Up The Highway" PERFORMER "UFO" INDEX 00 16:59:15 INDEX 01 17:01:72 TRACK 06 AUDIO TITLE "Back Door Man" PERFORMER "UFO" INDEX 00 21:40:17 INDEX 01 21:42:72 TRACK 07 AUDIO TITLE "Let The Good Time Roll" PERFORMER "UFO" INDEX 00 26:48:65 INDEX 01 26:51:45 TRACK 08 AUDIO TITLE "Too Hot To Handle (Live)" PERFORMER "UFO" INDEX 00 31:04:17 INDEX 01 31:07:00 TRACK 09 AUDIO TITLE "Cherry (Live)" PERFORMER "UFO" INDEX 01 35:09:20 TRACK 10 AUDIO TITLE "Love To Love (Live)" PERFORMER "UFO" INDEX 01 39:21:37 TRACK 11 AUDIO TITLE "Only You Can Rock Me (Live)" PERFORMER "UFO" INDEX 00 47:31:27 INDEX 01 47:31:57 TRACK 12 AUDIO TITLE "Lights Out (Live)" PERFORMER "UFO" INDEX 01 51:38:30 TRACK 13 AUDIO TITLE "Doctor Doctor (Live)" PERFORMER "UFO" INDEX 01 58:08:72 TRACK 14 AUDIO TITLE "Rock Bottom (Live)" PERFORMER "UFO" INDEX 01 66:26:17
  
[CUETools log; Date: 09.07.2012 11:50:04; Version: 2.1.4][CTDB TOCID: ltxDnJ4bMFoKhb_YYkCsbVUBPls-] disk not present in database.[AccurateRip ID: 0018d165-00f5b995-a20fe10c] found.Track [ CRC | V2 ] Status 01 [0527c7ad|472f27fd] (1+0/1) Accurately ripped 02 [34c2acce|72f13d27] (1+0/1) Accurately ripped 03 [1f0507f7|3aae953c] (1+0/1) Accurately ripped 04 [480b1118|8941b8f6] (1+0/1) Accurately ripped 05 [7b307149|bd2ea918] (1+0/1) Accurately ripped 06 [5c1f40ea|44da97c2] (1+0/1) Accurately ripped 07 [2a35e811|f99a8119] (1+0/1) Accurately ripped 08 [e925d944|00bfd442] (1+0/1) Accurately ripped 09 [53f2a505|1dffd444] (1+0/1) Accurately ripped 10 [bc2e955c|9f6ef7f5] (1+0/1) Accurately ripped 11 [a0e2d1ab|df11eeff] (1+0/1) Accurately ripped 12 [e3429245|024a2889] (1+0/1) Accurately ripped

Track Peak [ CRC32 ] [W/O NULL] [ LOG ] -- 99,8 [E9405ABA] [DB7FB9EA] CRC32 01 99,6 [DE0719D3] [75C48266] 02 98,7 [AA0395DC] [5803A214] 03 97,0 [3F1A3E7A] [22A7DBAA] 04 96,9 [4003E9B9] [C9C218F7] 05 93,2 [C66AB22E] [6EF05CBE] 06 96,8 [9280922D] [000C6AB7] 07 97,5 [C9207586] [21078FEE] 08 99,5 [A2C439F5] [6E7903BA] 09 93,1 [3C094F05] [9B439DF3] 10 94,7 [696D47A4] [9ABA36EE] 11 93,8 [A04E619B] [497792BE] 12 99,8 [899B044E] [B5829FC2]
  
[CUETools log; Date: 09.07.2012 11:50:26; Version: 2.1.4][CTDB TOCID: PzJfylIaBUgrwCA.qN1YC0_joaM-] disk not present in database.[AccurateRip ID: 00221876-0174078b-bf11d70e] found.Track [ CRC | V2 ] Status 01 [40d6688e|7f77136a] (1+0/1) Accurately ripped 02 [ca50eaf3|45fcf357] (1+0/1) Accurately ripped 03 [85c705d0|8200cf70] (1+0/1) Accurately ripped 04 [394b6af0|51b3a5b0] (1+0/1) Accurately ripped 05 [dad728e2|7d2ffc23] (1+0/1) Accurately ripped 06 [447e592e|55eef215] (1+0/1) Accurately ripped 07 [0ae89e51|0b170c85] (1+0/1) Accurately ripped 08 [2809feb6|7f7a5c3b] (1+0/1) Accurately ripped 09 [33d9cdae|940c079e] (1+0/1) Accurately ripped 10 [1d1678d0|12f896fd] (1+0/1) Accurately ripped 11 [9c09bbec|a7b719ef] (1+0/1) Accurately ripped 12 [a218ff09|cb38fe6b] (1+0/1) Accurately ripped 13 [37b2f70f|3ef674e8] (1+0/1) Accurately ripped 14 [ce767a7e|c6507615] (1+0/1) Accurately ripped

Track Peak [ CRC32 ] [W/O NULL] [ LOG ] -- 100,0 [F34B5A96] [B7CA8C0F] CRC32 01 97,9 [EA9354D0] [5A168914] 02 100,0 [7507F16E] [77E04788] 03 97,2 [4BCDAE2C] [7B94E19D] 04 97,4 [C7477A7F] [01BA3372] 05 98,3 [F85D3E90] [881D4D4B] 06 96,3 [B7F203BB] [A6F4C5D8] 07 99,8 [BA278757] [78DCC6F0] 08 85,9 [189039C0] [7267DAF1] 09 79,4 [CA22709F] [0D3F4CA4] 10 79,4 [966B501F] [C3332D8D] 11 79,4 [747D1527] [A504B161] 12 79,4 [B53C8768] [1C5B9CBA] 13 79,4 [2F381096] [5ECC57A0] 14 81,5 [6EA6EA62] [B9540A59]

Digitally mastered 1997 retrospective on the Recall label featuring 12 tracks from their first two albums, 'UFO' and 'UFO 2' & a track from their 'Live In Japan' album all on the first disc.

The second disc has 14 tracks from 1992's 'High Stakes And Dangerous Men' & 1993's 'Lights Out Over Tokyo', including live versions of eight of their '70s hits 'Doctor Doctor', 'Lights Out', 'Only You Can Rock Me', 'Too Hot To Handle' & 'Rock Bottom'.
Огромное спасибо автору рипов!


Трекер:  [ 11-Июл-2012 16:24 ]

  

Скачать .torrent

Размер .torrent файла 21 KB


Размер: 969 MB
Хэш (hash) релиза: f371326123455581eb5cb4f7d40810fc20214636

Еще никто не оставлял запись к записи скачать торрент UFO 1997-The X Factor - Out There... And Back! . Будь первым!

!Обратная связь