Скачать через торрент музыку Cats Choir - House of Dog - 1992, APE бесплатно без регистрации torrent

Если у вас наблюдаются проблемы со скриншотами, переходом по ссылками, скачиванием торрентов - проблемы в блокировщике рекламы AdBlock. #хорошегоДня!


Статистика раздачи
Размер:  504 MB   |    Зарегистрирован:  5 лет 1 месяц   |    .torrent скачан:  11 раз   |   
Раздают:  1  
   
Загрузка...
 
Автор Сообщение

Galfimbul

avatar Galfimbul


Cats Choir / House of Dog

Жанр: hard rock
Страна-производитель диска: USA
Год издания: 1992
Издатель (лейбл): Sonic Nirvana / Riot
Номер по каталогу: FR2002-CD
Страна: USA
Аудиокодек: APE (*.ape)
Тип рипа: image+.cue
Битрейт аудио: lossless
Источник (релизер): свой рипъ
Наличие сканов в содержимом раздачи: нет
Треклист:
01. House of Dog
02. Dirty Angels
03. Fire of Love
04. Rev U Up
05. Love War
06. Do the Love Dance
07. Wall N' Chains
08. Burnin' House
09. Heartache Comin'
10. Love Me to Death
11. Walls of Jericho
12. Don't Push Me Down
13. The Place
14. Call of the Wild
15. Touchin' Heaven
  
Exact Audio Copy V0.99 prebeta 4 from 23. January 2008

EAC extraction logfile from 9. July 2012, 18:36

Cats Chior / House Of Dog

Used drive : PIONEER DVD-RW DVR-212 Adapter: 5 ID: 0

Read mode : SecureUtilize accurate stream : YesDefeat audio cache : YesMake use of C2 pointers : No

Read offset correction : 48Overread into Lead-In and Lead-Out : NoFill up missing offset samples with silence : YesDelete leading and trailing silent blocks : NoNull samples used in CRC calculations : YesUsed interface : Native Win32 interface for Win NT & 2000

Used output format : Internal WAV RoutinesSample format : 44.100 Hz; 16 Bit; Stereo

TOC of the extracted CD

Track | Start | Length | Start sector | End sector --------------------------------------------------------- 1 | 0:00.32 | 4:31.50 | 32 | 20406 2 | 4:32.07 | 6:16.60 | 20407 | 48666 3 | 10:48.67 | 5:20.23 | 48667 | 72689 4 | 16:09.15 | 4:00.25 | 72690 | 90714 5 | 20:09.40 | 4:29.70 | 90715 | 110959 6 | 24:39.35 | 4:35.40 | 110960 | 131624 7 | 29:15.00 | 5:14.42 | 131625 | 155216 8 | 34:29.42 | 4:28.40 | 155217 | 175356 9 | 38:58.07 | 5:38.13 | 175357 | 200719 10 | 44:36.20 | 4:00.37 | 200720 | 218756 11 | 48:36.57 | 4:34.13 | 218757 | 239319 12 | 53:10.70 | 4:02.42 | 239320 | 257511 13 | 57:13.37 | 5:57.10 | 257512 | 284296 14 | 63:10.47 | 4:25.45 | 284297 | 304216 15 | 67:36.17 | 4:55.45 | 304217 | 326386

Range status and errors

Selected range

Filename D:\temp\Cats Chior - House Of Dog.wav

Peak level 100.0 % Range quality 100.0 % Copy CRC 5A5006EA Copy OK

No errors occurred

AccurateRip summary

Track 1 not present in databaseTrack 2 not present in databaseTrack 3 not present in databaseTrack 4 not present in databaseTrack 5 not present in databaseTrack 6 not present in databaseTrack 7 not present in databaseTrack 8 not present in databaseTrack 9 not present in databaseTrack 10 not present in databaseTrack 11 not present in databaseTrack 12 not present in databaseTrack 13 not present in databaseTrack 14 not present in databaseTrack 15 not present in database

None of the tracks are present in the AccurateRip database

End of status report


Трекер:  [ 11-Июл-2012 16:23 ]

  

Скачать .torrent

Размер .torrent файла 40 KB


Размер: 504 MB
Хэш (hash) релиза: ceca290934bddf30af919302bb5d370ed51b1796

Еще никто не оставлял запись к записи скачать торрент Cats Choir - House of Dog - 1992, APE . Будь первым!

!Обратная связь