Скачать через торрент музыку Letter 7 - Follow The Light - 2008, FLAC бесплатно без регистрации torrent

Если у вас наблюдаются проблемы со скриншотами, переходом по ссылками, скачиванием торрентов - проблемы в блокировщике рекламы AdBlock. #хорошегоДня!


Статистика раздачи
Размер:  359 MB   |    Зарегистрирован:  5 лет 1 месяц   |    .torrent скачан:  10 раз   |   
Раздают:  1  
   
Загрузка...
 
Автор Сообщение

Galfimbul

avatar Galfimbul


Letter 7 / Follow The Light
Жанр: Hard Rock/Heavy Metal
Страна-производитель диска: USA
Год издания: 2008
Издатель (лейбл): Lifeline Audio Productions
Страна: USA
Аудиокодек: FLAC (*.flac)
Тип рипа: image+.cue
Битрейт аудио: lossless
Продолжительность: 48:52
Источник (релизер): church
Наличие сканов в содержимом раздачи: да
Треклист:
01 - In The Beginning [01:58]
02 - Runnin [04:54]
03 - Nail In The Cross [04:38]
04 - Follow The Light [04:06]
05 - Send Me An Angel [04:25]
06 - Mystery [03:56]
07 - Lifeline [04:20]
08 - Laodicea [03:10]
09 - Prayer Warriors [04:08]
10 - My Destiny [05:01]
11 - Liar [03:07]
12 - Love Covers It All [05:03]
  
Exact Audio Copy V0.99 prebeta 5 from 4. May 2009

EAC extraction logfile from 2. January 2012, 15:08

Letter 7 / Follow The Light

Used drive : PIONEER DVD-RW DVR-116D Adapter: 0 ID: 0

Read mode : SecureUtilize accurate stream : YesDefeat audio cache : YesMake use of C2 pointers : No

Read offset correction : 96Overread into Lead-In and Lead-Out : NoFill up missing offset samples with silence : YesDelete leading and trailing silent blocks : NoNull samples used in CRC calculations : YesUsed interface : Native Win32 interface for Win NT & 2000

Used output format : User Defined EncoderSelected bitrate : 32 kBit/sQuality : HighAdd ID3 tag : NoCommand line compressor : C:\Program Files\Exact Audio Copy\Flac\flac.exeAdditional command line options : -6 -V %s

TOC of the extracted CD

Track | Start | Length | Start sector | End sector --------------------------------------------------------- 1 | 0:00.00 | 1:58.13 | 0 | 8862 2 | 1:58.13 | 4:54.28 | 8863 | 30940 3 | 6:52.41 | 4:38.73 | 30941 | 51863 4 | 11:31.39 | 4:06.65 | 51864 | 70378 5 | 15:38.29 | 4:25.45 | 70379 | 90298 6 | 20:03.74 | 3:56.25 | 90299 | 108023 7 | 24:00.24 | 4:20.46 | 108024 | 127569 8 | 28:20.70 | 3:10.43 | 127570 | 141862 9 | 31:31.38 | 4:08.56 | 141863 | 160518 10 | 35:40.19 | 5:01.23 | 160519 | 183116 11 | 40:41.42 | 3:07.41 | 183117 | 197182 12 | 43:49.08 | 5:03.54 | 197183 | 219961

Range status and errors

Selected range

Filename D:\Ìóçûêà\Lossless\Letter 7 - Follow The Light (2008)\Letter 7 - Follow The Light.wav

Peak level 100.0 % Range quality 100.0 % Copy CRC 0EAD8AEE Copy OK

No errors occurred

AccurateRip summary

Track 1 not present in databaseTrack 2 not present in databaseTrack 3 not present in databaseTrack 4 not present in databaseTrack 5 not present in databaseTrack 6 not present in databaseTrack 7 not present in databaseTrack 8 not present in databaseTrack 9 not present in databaseTrack 10 not present in databaseTrack 11 not present in databaseTrack 12 not present in database

None of the tracks are present in the AccurateRip database

End of status report
  
REM GENRE "Hard 'N' Heavy"REM DATE 2008REM DISCID 810B740CREM COMMENT "ExactAudioCopy v0.99pb5"PERFORMER "Letter 7"TITLE "Follow The Light"FILE "Letter 7 - Follow The Light.flac" WAVE TRACK 01 AUDIO TITLE "In The Beginning" PERFORMER "Letter 7" INDEX 01 00:00:00 TRACK 02 AUDIO TITLE "Runnin" PERFORMER "Letter 7" INDEX 01 01:58:13 TRACK 03 AUDIO TITLE "Nail In The Cross" PERFORMER "Letter 7" INDEX 00 06:50:41 INDEX 01 06:52:41 TRACK 04 AUDIO TITLE "Follow The Light" PERFORMER "Letter 7" INDEX 00 11:29:39 INDEX 01 11:31:39 TRACK 05 AUDIO TITLE "Send Me An Angel" PERFORMER "Letter 7" INDEX 00 15:36:29 INDEX 01 15:38:29 TRACK 06 AUDIO TITLE "Mystery" PERFORMER "Letter 7" INDEX 00 20:01:74 INDEX 01 20:03:74 TRACK 07 AUDIO TITLE "Lifeline" PERFORMER "Letter 7" INDEX 00 23:58:24 INDEX 01 24:00:24 TRACK 08 AUDIO TITLE "Laodicea" PERFORMER "Letter 7" INDEX 00 28:18:70 INDEX 01 28:20:70 TRACK 09 AUDIO TITLE "Prayer Warriors" PERFORMER "Letter 7" INDEX 00 31:29:38 INDEX 01 31:31:38 TRACK 10 AUDIO TITLE "My Destiny" PERFORMER "Letter 7" INDEX 00 35:38:19 INDEX 01 35:40:19 TRACK 11 AUDIO TITLE "Liar" PERFORMER "Letter 7" INDEX 00 40:39:42 INDEX 01 40:41:42 TRACK 12 AUDIO TITLE "Love Covers It All" PERFORMER "Letter 7" INDEX 00 43:47:08 INDEX 01 43:49:08
JD Evans - Lead And Rhytm Guitars, Bass, Drums, Keys, Backing Vocals
Steve Young - Vocals


Трекер:  [ 11-Июл-2012 16:23 ]

  

Скачать .torrent

Размер .torrent файла 15 KB


Размер: 359 MB
Хэш (hash) релиза: a554aa517997d4b17e1f8b79e55e894f234ae2d7

Еще никто не оставлял запись к записи скачать торрент Letter 7 - Follow The Light - 2008, FLAC . Будь первым!

!Обратная связь