Скачать через торрент музыку Arcansiel - Normality of Perversion бесплатно без регистрации torrent

Если у вас наблюдаются проблемы со скриншотами, переходом по ссылками, скачиванием торрентов - проблемы в блокировщике рекламы AdBlock. #хорошегоДня!


Статистика раздачи
Размер:  248 MB   |    Зарегистрирован:  5 лет 1 месяц   |    .torrent скачан:  8 раз   |   
Раздают:  1  
   
Загрузка...
 
Автор Сообщение

Galfimbul

avatar Galfimbul


Arcansiel - Normality of Perversion

Жанр: Neo Progressive
Год выпуска диска: 1994
Страна: Italy
Label: Mellow Records
Catalog Nr.: MMP 203
Аудио кодек: FLAC
Тип рипа: image+.cue(test&copy)
Битрейт аудио: lossless
Продолжительность: 39:49
Источник: свой старый рип

Трэклист:

1. The Girl From Heaven And The Wolf Don't Care If You Are Glad To Live (6:36)
2. Holy Wolf Suite (14:12)
3. The End (7:05)
4. What Does "The Night Becomes True" Mean? (6:14)
5. I'm Crashing Videotapes Behind The Mirrors Against Your T.V. Set (5:52)

Total Time: 39:49

Музыканты

- Gianni Lavagno / drums
- Gianni Opezzo / guitars, piano
- Paolo Carroni / lead vocals
- Paolo Baltaro / keyboards, bass and some vocals
Exact Audio Copy V0.99 prebeta 5 from 4. May 2009

EAC extraction logfile from 16. June 2009, 20:15

Arcansiel / Normality of Perversion

Used drive : ASUS DRW-20B1ST Adapter: 4 ID: 0

Read mode : Secure
Utilize accurate stream : Yes
Defeat audio cache : Yes
Make use of C2 pointers : No

Read offset correction : 6
Overread into Lead-In and Lead-Out : No
Fill up missing offset samples with silence : Yes
Delete leading and trailing silent blocks : No
Null samples used in CRC calculations : Yes
Used interface : Native Win32 interface for Win NT & 2000

Used output format : User Defined Encoder
Selected bitrate : 1024 kBit/s
Quality : High
Add ID3 tag : Yes
Command line compressor : C:\Program Files\flac.exe
Additional command line options : -6 -V -T "ARTIST=%a" -T "TITLE=%t" -T "ALBUM=%g" -T "DATE=%y" -T "TRACKNUMBER=%n" -T "GENRE=%m" -T "COMMENT=%e" %s -o %d

TOC of the extracted CD

Track | Start | Length | Start sector | End sector
---------------------------------------------------------
1 | 0:00.00 | 6:38.42 | 0 | 29891
2 | 6:38.42 | 14:14.65 | 29892 | 94006
3 | 20:53.32 | 7:09.10 | 94007 | 126191
4 | 28:02.42 | 6:18.56 | 126192 | 154597
5 | 34:21.23 | 5:54.47 | 154598 | 181194

Range status and errors

Selected range

Filename Y:\EAC\sole-survivor\Arcansiel\Arcansiel - Normality of Perversion.wav

Peak level 100.0 %
Range quality 100.0 %
Test CRC 89C75877
Copy CRC 89C75877
Copy OK

No errors occurred

AccurateRip summary

Track 1 not present in database
Track 2 not present in database
Track 3 not present in database
Track 4 not present in database
Track 5 not present in database

None of the tracks are present in the AccurateRip database

End of status report
[CUETools log; Date: 08.07.2012 16:04:14; Version: 2.1.4]
[CTDB TOCID: 9AAzOHbtvc8uLn.gc3JVUbb7wNc-] disk not present in database.
[AccurateRip ID: 0008f09c-00294d2e-31096f05] disk not present in database.

Track Peak [ CRC32 ] [W/O NULL] [ LOG ]
-- 100,0 [89C75877] [D4ECC567] CRC32
01 100,0 [E81731A0] [FE71A9C8]
02 70,7 [669678CD] [6A014C91]
03 93,2 [F3E1E5A9] [8D734316]
04 86,3 [4E54E688] [2F67490C]
05 80,3 [2466E326] [9AC78528]
Started at: Sunday, 08. 07. 2012. - 18:36.42
1 file found

1 -===- X:\Lossless 3\A\Arcansiel\Arcansiel - Normality of Perversion (1994)\Arcansiel - Normality of Perversion.flac
Extracted successfully
Conclusion: this track is CDDA with probability 100%
Tempfile successfully deleted.

Finished at: Sunday, 08. 07. 2012. - 18:39.17 (operation time: 0:02.34)


Трекер:  [ 11-Июл-2012 16:23 ]

  

Скачать .torrent

Размер .torrent файла 20 KB


Размер: 248 MB
Хэш (hash) релиза: be2dfab30eb5c6bb8796ea8c48b4207104b1fd9d

Еще никто не оставлял запись к записи скачать торрент Arcansiel - Normality of Perversion . Будь первым!

!Обратная связь