Скачать через торрент музыку A Helmet Of Gnats - st бесплатно без регистрации torrent

Если у вас наблюдаются проблемы со скриншотами, переходом по ссылками, скачиванием торрентов - проблемы в блокировщике рекламы AdBlock. #хорошегоДня!


Статистика раздачи
Размер:  373 MB   |    Зарегистрирован:  5 лет 4 месяца   |    .torrent скачан:  19 раз   |   
Раздают:  1  
   
Загрузка...
 
Автор Сообщение

Galfimbul

avatar Galfimbul


A Helmet Of Gnats - A Helmet of Gnats

Жанр: Progressive rock/Fusion/Instrumental
Год выпуска диска: 1996
Страна: USA
Label: AHOG music (self-release)
Catalog Nr.: No
Аудио кодек: FLAC
Тип рипа: image+.cue(test&copy)
Битрейт аудио: lossless
Продолжительность: 55:51
Источник: свой старый рип


Трэклист:

1. Giant Picnic
2. Nathan Deacon's Brain
3. Ticks in the Field
4. The Happy Camper
5. Geezus Horrendous
6. The Deer Hunter
7. Nitefighters
8. The Autopsy

Total Time: 55:51

Музыканты

- Chris Fox / guitars
- Matt Bocchino / keyboards
- Nicola Vitiello / drums
- Nick Defala / bass

Об альбоме: Дебютный альбом известной американской группы. Раздача оформлена по многочисленным просьбам.
Два последующих релиза на теркере имеются.
Exact Audio Copy V0.99 prebeta 5 from 4. May 2009

EAC extraction logfile from 18. July 2010, 22:02

A Helmet Of Gnats / A Helmet of Gnats

Used drive : ASUS DRW-24B1LT Adapter: 4 ID: 0

Read mode : Secure
Utilize accurate stream : Yes
Defeat audio cache : Yes
Make use of C2 pointers : No

Read offset correction : 6
Overread into Lead-In and Lead-Out : No
Fill up missing offset samples with silence : Yes
Delete leading and trailing silent blocks : No
Null samples used in CRC calculations : Yes
Used interface : Native Win32 interface for Win NT & 2000

Used output format : User Defined Encoder
Selected bitrate : 1024 kBit/s
Quality : High
Add ID3 tag : Yes
Command line compressor : C:\Program Files (x86)\FLAC\flac.exe
Additional command line options : -6 -V -T "ARTIST=%a" -T "TITLE=%t" -T "ALBUM=%g" -T "DATE=%y" -T "TRACKNUMBER=%n" -T "GENRE=%m" -T "COMMENT=%e" %s -o %d

TOC of the extracted CD

Track | Start | Length | Start sector | End sector
---------------------------------------------------------
1 | 0:00.00 | 6:17.30 | 0 | 28304
2 | 6:17.30 | 6:39.50 | 28305 | 58279
3 | 12:57.05 | 7:08.20 | 58280 | 90399
4 | 20:05.25 | 7:27.40 | 90400 | 123964
5 | 27:32.65 | 6:15.57 | 123965 | 152146
6 | 33:48.47 | 7:38.33 | 152147 | 186529
7 | 41:27.05 | 5:54.65 | 186530 | 213144
8 | 47:21.70 | 8:29.02 | 213145 | 251321

Range status and errors

Selected range

Filename Y:\EAC\sole-survivor\A Helmet of Gnats\A Helmet Of Gnats - A Helmet of Gnats.wav

Peak level 98.8 %
Range quality 100.0 %
Test CRC C5E8222B
Copy CRC C5E8222B
Copy OK

No errors occurred

AccurateRip summary

Track 1 not present in database
Track 2 not present in database
Track 3 not present in database
Track 4 not present in database
Track 5 not present in database
Track 6 not present in database
Track 7 not present in database
Track 8 not present in database
Track 9 not present in database

None of the tracks are present in the AccurateRip database

End of status report
[CUETools log; Date: 08.07.2012 22:03:43; Version: 2.1.4]
[CTDB TOCID: YU0NvmHMw1vcKeRUinf9AIPqQ20-] disk not present in database.
[AccurateRip ID: 0010d8de-0070e47e-730d1608] found.
Track [ CRC | V2 ] Status
01 [841fd2e4|6e50bff7] (1+0/1) Accurately ripped
02 [af0c4408|aca7a749] (1+0/1) Accurately ripped
03 [e142391c|0e1e32ca] (1+0/1) Accurately ripped
04 [f2314b3c|cdbf9072] (1+0/1) Accurately ripped
05 [83f8f0cb|af134aea] (1+0/1) Accurately ripped
06 [137270ac|c50d26a8] (1+0/1) Accurately ripped
07 [411f26c4|26ab2fcf] (1+0/1) Accurately ripped
08 [7fcace46|434d2e10] (1+0/1) Accurately ripped

Track Peak [ CRC32 ] [W/O NULL]
-- 98,8 [C5E8222B] [E3476D6D]
01 98,8 [97F0C034] [1724DDC3]
02 97,6 [8C4F6D66] [13507EB6]
03 98,8 [C5CAA15D] [3803D38A]
04 98,8 [E98B3A48] [EA0E0BD0]
05 98,7 [F5D22EBD] [2FFF984F]
06 98,8 [77522923] [EEC57276]
07 98,8 [F87C6991] [421A219A]
08 98,8 [BB1128FD] [B24640B6]


Трекер:  [ 11-Июл-2012 16:23 ]

  

Скачать .torrent

Размер .torrent файла 15 KB


Размер: 373 MB
Хэш (hash) релиза: a99b28ab8fc9ec1015b316129d35e04f1f04c68d

Еще никто не оставлял запись к записи скачать торрент A Helmet Of Gnats - st . Будь первым!

!Обратная связь