Скачать через торрент музыку U2 - 1983-War бесплатно без регистрации torrent

Если у вас наблюдаются проблемы со скриншотами, переходом по ссылками, скачиванием торрентов - проблемы в блокировщике рекламы AdBlock. #хорошегоДня!


Статистика раздачи
Размер:  327 MB   |    Зарегистрирован:  5 лет 4 месяца   |    .torrent скачан:  26 раз   |   
Раздают:  1  
   
Загрузка...
 
Автор Сообщение

Galfimbul

avatar Galfimbul


1983-War
[Island 811 148-2 / IMCD 141, France]

Жанр: Rock
Страна исполнителя: Ireland
Страна-производитель диска: France by PMDC
Год выхода альбома / издания диска: 1983 / 2000(?)
Издатель (лейбл): Island Records
Номер по каталогу: Island 811 148-2 / IMCD 141
Аудио кодек: FLAC (*.flac)
Тип рипа: image+.cue
Битрейт аудио: lossless
Продолжительность: 42:08
Автор рипа: edenika (NetLab)
Наличие сканов в содержимом раздачи:
01. Sunday Bloody Sunday (4:37)
02. Seconds (3:11)
03. New Year's Day (5:36)
04. Like A Song... (4:47)
05. Drowning Man (4:14)
06. The Refugee (3:41)
07. Two Hearts Beat As One (4:03)
08. Red Light (3:46)
09. Surrender (5:33)
10. ''40'' (2:38)
  
Exact Audio Copy V1.0 beta 3 from 29. August 2011

EAC extraction logfile from 7. July 2012, 20:54

U2 / War

Used drive : HL-DT-STDVDRAM GH22NS50 Adapter: 1 ID: 1

Read mode : SecureUtilize accurate stream : YesDefeat audio cache : YesMake use of C2 pointers : No

Read offset correction : 667Overread into Lead-In and Lead-Out : NoFill up missing offset samples with silence : YesDelete leading and trailing silent blocks : NoNull samples used in CRC calculations : YesUsed interface : Native Win32 interface for Win NT & 2000

Used output format : Internal WAV RoutinesSample format : 44.100 Hz; 16 Bit; Stereo

TOC of the extracted CD

Track | Start | Length | Start sector | End sector --------------------------------------------------------- 1 | 0:00.32 | 4:37.33 | 32 | 20839 2 | 4:37.65 | 3:11.37 | 20840 | 35201 3 | 7:49.27 | 5:36.18 | 35202 | 60419 4 | 13:25.45 | 4:47.20 | 60420 | 81964 5 | 18:12.65 | 4:14.20 | 81965 | 101034 6 | 22:27.10 | 3:41.15 | 101035 | 117624 7 | 26:08.25 | 4:03.27 | 117625 | 135876 8 | 30:11.52 | 3:45.53 | 135877 | 152804 9 | 33:57.30 | 5:33.37 | 152805 | 177816 10 | 39:30.67 | 2:37.63 | 177817 | 189654

Range status and errors

Selected range

Filename C:\Music CD\U2 - War.wav

Peak level 100.0 % Extraction speed 1.6 X Range quality 100.0 % Test CRC 512878C7 Copy CRC 512878C7 Copy OK

No errors occurred

AccurateRip summary

Track 1 accurately ripped (confidence 9) [67AE8FBA] (AR v2)Track 2 accurately ripped (confidence 8) [3CF7D6F1] (AR v2)Track 3 accurately ripped (confidence 9) [328C854A] (AR v2)Track 4 accurately ripped (confidence 8) [D23356E5] (AR v2)Track 5 accurately ripped (confidence 8) [5F949CFE] (AR v2)Track 6 accurately ripped (confidence 8) [D3AA26F7] (AR v2)Track 7 accurately ripped (confidence 8) [C717CB68] (AR v2)Track 8 accurately ripped (confidence 8) [9CD773E7] (AR v2)Track 9 accurately ripped (confidence 8) [1B7B2D21] (AR v2)Track 10 accurately ripped (confidence 8) [53F381F5] (AR v2)

All tracks accurately ripped

End of status report

==== Log checksum CE2D33F1AD1FB785783C88C8B85D2B8BE2F5459080D13A3BFAA9F0B5DE8D3857 ====
  
REM GENRE "Rock"REM DATE 1983REM DISCID 8409E00AREM COMMENT "ExactAudioCopy v1.0b3"REM ACCURATERIPID 00106079-00828a24-8409e00aCATALOG 042281114823REM DISCNUMBER 1REM TOTALDISCS 1PERFORMER "U2"TITLE "War"FILE "U2 - War.flac" WAVE TRACK 01 AUDIO TITLE "Sunday Bloody Sunday" PERFORMER "U2" INDEX 00 00:00:00 INDEX 01 00:00:32 TRACK 02 AUDIO TITLE "Seconds" PERFORMER "U2" INDEX 00 04:37:00 INDEX 01 04:37:65 TRACK 03 AUDIO TITLE "New Year's Day" PERFORMER "U2" INDEX 01 07:49:27 TRACK 04 AUDIO TITLE "Like A Song..." PERFORMER "U2" INDEX 00 13:24:40 INDEX 01 13:25:45 TRACK 05 AUDIO TITLE "Drowning Man" PERFORMER "U2" INDEX 01 18:12:65 TRACK 06 AUDIO TITLE "The Refugee" PERFORMER "U2" INDEX 00 22:25:57 INDEX 01 22:27:10 TRACK 07 AUDIO TITLE "Two Hearts Beat As One" PERFORMER "U2" INDEX 00 26:07:72 INDEX 01 26:08:25 TRACK 08 AUDIO TITLE "Red Light" PERFORMER "U2" INDEX 00 30:10:42 INDEX 01 30:11:52 TRACK 09 AUDIO TITLE "Surrender" PERFORMER "U2" INDEX 00 33:56:10 INDEX 01 33:57:30 TRACK 10 AUDIO TITLE "''40''" PERFORMER "U2" INDEX 00 39:29:10 INDEX 01 39:30:67
  
[CUETools log; Date: 10.07.2012 12:19:55; Version: 2.1.4]Pregap length 00:00:32.[CTDB TOCID: n.6.JEhvydRJZ9HohtDCpmIehHc-] disk not present in database.[AccurateRip ID: 00106079-00828a24-8409e00a] found.Track [ CRC | V2 ] Status 01 [a7fb75d0|67ae8fba] (68+09/91) Accurately ripped 02 [4c7bf371|3cf7d6f1] (67+08/88) Accurately ripped 03 [7337291c|328c854a] (68+09/92) Accurately ripped 04 [9b3be90c|d23356e5] (69+08/90) Accurately ripped 05 [aa3d1b2b|5f949cfe] (66+08/87) Accurately ripped 06 [66a63c70|d3aa26f7] (67+08/87) Accurately ripped 07 [d4edee88|c717cb68] (67+08/87) Accurately ripped 08 [55579ccc|9cd773e7] (66+08/87) Accurately ripped 09 [8b608aa8|1b7b2d21] (67+08/88) Accurately ripped 10 [e78dbcae|53f381f5] (65+08/88) Accurately rippedOffsetted by -2262: 01 [495dc274] (08/91) Accurately ripped 02 [a5ddfb0f] (09/88) Accurately ripped 03 [13534e04] (09/92) Accurately ripped 04 [b2f7a179] (09/90) Accurately ripped 05 [05091dec] (09/87) Accurately ripped 06 [56854856] (08/87) Accurately ripped 07 [17dbaae3] (08/87) Accurately ripped 08 [29d68600] (09/87) Accurately ripped 09 [c1775c97] (09/88) Accurately ripped 10 [4e9dbe5f] (09/88) Accurately ripped

Track Peak [ CRC32 ] [W/O NULL] [ LOG ] -- 100,0 [512878C7] [179EBFA8] CRC32 01 100,0 [41C32ABB] [29EE1505] 02 100,0 [780E75D3] [49399568] 03 93,4 [A7714A3F] [64A43833] 04 100,0 [8331F80C] [34C92ADA] 05 89,8 [8D58F82E] [FCF6EF9B] 06 100,0 [D4383200] [9AD082AA] 07 100,0 [B2EA4E31] [C58DE27B] 08 100,0 [8FB4E1ED] [03ABEFCB] 09 100,0 [7DC14CE2] [52F0C5A2] 10 100,0 [15F4CEAB] [E5B609DD]
  
foobar2000 1.1.1 / Dynamic Range Meter 1.1.1log date: 2012-07-10 12:18:49

--------------------------------------------------------------------------------Analyzed: U2 / War--------------------------------------------------------------------------------

DR Peak RMS Duration Track--------------------------------------------------------------------------------DR11 0.00 dB -13.60 dB 4:37 01-Sunday Bloody SundayDR11 0.00 dB -13.86 dB 3:11 02-SecondsDR11 -0.59 dB -13.90 dB 5:36 03-New Year's DayDR12 0.00 dB -13.05 dB 4:47 04-Like A Song...DR10 -0.93 dB -14.17 dB 4:14 05-Drowning ManDR12 0.00 dB -14.57 dB 3:41 06-The RefugeeDR11 0.00 dB -12.82 dB 4:03 07-Two Hearts Beat As OneDR11 0.00 dB -14.22 dB 3:46 08-Red LightDR11 0.00 dB -12.79 dB 5:33 09-SurrenderDR10 0.00 dB -12.32 dB 2:38 10-''40''--------------------------------------------------------------------------------

Number of tracks: 10Official DR value: DR11

Samplerate: 44100 HzChannels: 2Bits per sample: 16Bitrate: 946 kbpsCodec: FLAC

War is the third studio album by U2, released on 28 February 1983. The album has come to be regarded as U2's first overtly political album, in part because of songs like "Sunday Bloody Sunday", "New Year's Day", as well as the title, which stems from the band's perception of the world at the time; Bono stated that "war seemed to be the motif for 1982."

War was a commercial success for the band, knocking Michael Jackson's Thriller from the top of the charts to become the band's first #1 album in the UK. It reached #12 in the U.S. and became their first Gold-certified album there. War has received critical acclaim. In 2003, the album was ranked number 221 on Rolling Stone magazine's list of "The 500 Greatest Albums of All Time".
Personnel:
• Bono – lead vocals, additional guitar
• The Edge – guitar, piano, lap steel, backing vocals, lead vocals on "Seconds," bass and rhythm guitar on "40"
• Adam Clayton – bass, lead guitar on "40".
• Larry Mullen Jr. – drums

• Kenny Fradley – trumpet on "Red Light"
• Steve Wickham – electric violin on "Sunday Bloody Sunday" and "Drowning Man"
• The Coconuts: Cheryl Poirier, Adriana Kaegi, Taryn Hagey, Jessica Felton – backing vocals on "Like A Song...", "Red Light", and "Surrender"
Огромное спасибо оригинальному релизеру!


Трекер:  [ 11-Июл-2012 16:23 ]

  

Скачать .torrent

Размер .torrent файла 14 KB


Размер: 327 MB
Хэш (hash) релиза: 70b904532063ee423447cd820793a0a9c41fca59

Еще никто не оставлял запись к записи скачать торрент U2 - 1983-War . Будь первым!

!Обратная связь