Скачать через торрент музыку These United States - These United States - 2012, бесплатно без регистрации torrent

Если у вас наблюдаются проблемы со скриншотами, переходом по ссылками, скачиванием торрентов - проблемы в блокировщике рекламы AdBlock. #хорошегоДня!


Статистика раздачи
Размер:  259 MB   |    Зарегистрирован:  5 лет 4 месяца   |    .torrent скачан:  22 раза   |   
Раздают:  1  
   
Загрузка...
 
Автор Сообщение

Galfimbul

avatar Galfimbul


These United States / These United States

Жанр: Alternative Country / Psychedelic Rock / Folk Rock
Страна-производитель диска: US
Год издания: 2012
Издатель (лейбл): United Interests
Страна: US

Аудиокодек: FLAC (*.flac)
Тип рипа: tracks+.cue
Битрейт аудио: lossless

Продолжительность: 41:36

Источник (релизер): What.cd (by goldsplatter)
Наличие сканов в содержимом раздачи: нет

Треклист:
01. Dead & Gone (3:12)
02. Born Young (2:50)
03. Let the River In (3:47)
04. Miss Underground (3:39)
05. Maps (3:22)
06. Two Gods (3:21)
07. Not Gone Tonight (2:51)
08. So Sweet to be Back (2:28)
09. The Angel's Share (3:13)
10. The Park (4:21)
11. Vince (4:21)
12. Never Stop Falling (4:11)
  
X Lossless Decoder version 20120609 (141.0)

XLD extraction logfile from 2012-07-06 15:56:38 -0700

These United States / These United States

Used drive : MATSHITA DVD-R UJ-898 (revision HC09)

Ripper mode : XLD Secure RipperDisable audio cache : OK for the drive with a cache less than 1375KiBMake use of C2 pointers : NORead offset correction : 102Max retry count : 100Gap status : Analyzed, Appended (except HTOA)

TOC of the extracted CD Track | Start | Length | Start sector | End sector --------------------------------------------------------- 1 | 00:00:00 | 03:12:73 | 0 | 14472 2 | 03:12:73 | 02:50:65 | 14473 | 27287 3 | 06:03:63 | 03:47:02 | 27288 | 44314 4 | 09:50:65 | 03:39:64 | 44315 | 60803 5 | 13:30:54 | 03:22:50 | 60804 | 76003 6 | 16:53:29 | 03:21:71 | 76004 | 91149 7 | 20:15:25 | 02:51:57 | 91150 | 104031 8 | 23:07:07 | 02:28:63 | 104032 | 115194 9 | 25:35:70 | 03:13:67 | 115195 | 129736 10 | 28:49:62 | 04:21:51 | 129737 | 149362 11 | 33:11:38 | 04:21:42 | 149363 | 168979 12 | 37:33:05 | 04:11:02 | 168980 | 187806

AccurateRip Summary Disc not found in AccurateRip DB.

All Tracks Album gain : -8.56 dB Peak : 0.999969 Statistics Read error : 0 Jitter error (maybe fixed) : 0 Retry sector count : 0 Damaged sector count : 0

Track 01 Filename : /Users/sccouch/Documents/Torrents/These United States - These United States (2012) [FLAC]/01 Dead & Gone.flac Pre-gap length : 00:02:00

Track gain : -9.04 dB Peak : 0.999969 CRC32 hash (test run) : 03339F2C CRC32 hash : 03339F2C CRC32 hash (skip zero) : 74A8F518 AccurateRip v1 signature : 6E1D998B AccurateRip v2 signature : C6124BFC ->Track not present in AccurateRip database. Statistics Read error : 0 Jitter error (maybe fixed) : 0 Retry sector count : 0 Damaged sector count : 0

Track 02 Filename : /Users/sccouch/Documents/Torrents/These United States - These United States (2012) [FLAC]/02 Born Young.flac Pre-gap length : 00:03:00

Track gain : -8.94 dB Peak : 0.999969 CRC32 hash (test run) : 142403B9 CRC32 hash : 142403B9 CRC32 hash (skip zero) : EB3A21A1 AccurateRip v1 signature : E2A96962 AccurateRip v2 signature : BA01BFE2 ->Track not present in AccurateRip database. Statistics Read error : 0 Jitter error (maybe fixed) : 0 Retry sector count : 0 Damaged sector count : 0

Track 03 Filename : /Users/sccouch/Documents/Torrents/These United States - These United States (2012) [FLAC]/03 Let the River in.flac Pre-gap length : 00:04:00

Track gain : -8.49 dB Peak : 0.999969 CRC32 hash (test run) : 34FA2DDD CRC32 hash : 34FA2DDD CRC32 hash (skip zero) : B716E604 AccurateRip v1 signature : 8DB640F5 AccurateRip v2 signature : D8971706 ->Track not present in AccurateRip database. Statistics Read error : 0 Jitter error (maybe fixed) : 0 Retry sector count : 0 Damaged sector count : 0

Track 04 Filename : /Users/sccouch/Documents/Torrents/These United States - These United States (2012) [FLAC]/04 Miss Underground.flac Pre-gap length : 00:02:00

Track gain : -8.63 dB Peak : 0.999969 CRC32 hash (test run) : 73D002C1 CRC32 hash : 73D002C1 CRC32 hash (skip zero) : C5B9BD69 AccurateRip v1 signature : 8C20DDC2 AccurateRip v2 signature : 222C9498 ->Track not present in AccurateRip database. Statistics Read error : 0 Jitter error (maybe fixed) : 0 Retry sector count : 0 Damaged sector count : 0

Track 05 Filename : /Users/sccouch/Documents/Torrents/These United States - These United States (2012) [FLAC]/05 Maps.flac Pre-gap length : 00:02:37

Track gain : -8.95 dB Peak : 0.999969 CRC32 hash (test run) : 43068CCD CRC32 hash : 43068CCD CRC32 hash (skip zero) : 8DF3CF26 AccurateRip v1 signature : 6529D749 AccurateRip v2 signature : 4D6CBF2C ->Track not present in AccurateRip database. Statistics Read error : 0 Jitter error (maybe fixed) : 0 Retry sector count : 0 Damaged sector count : 0

Track 06 Filename : /Users/sccouch/Documents/Torrents/These United States - These United States (2012) [FLAC]/06 Two Gods.flac Pre-gap length : 00:03:37

Track gain : -8.18 dB Peak : 0.999969 CRC32 hash (test run) : 46BE97CC CRC32 hash : 46BE97CC CRC32 hash (skip zero) : 9BC55195 AccurateRip v1 signature : CBDE5647 AccurateRip v2 signature : B6813538 ->Track not present in AccurateRip database. Statistics Read error : 0 Jitter error (maybe fixed) : 0 Retry sector count : 0 Damaged sector count : 0

Track 07 Filename : /Users/sccouch/Documents/Torrents/These United States - These United States (2012) [FLAC]/07 Not Gone Tonight.flac Pre-gap length : 00:06:00

Track gain : -8.38 dB Peak : 0.999969 CRC32 hash (test run) : 067FDFD8 CRC32 hash : 067FDFD8 CRC32 hash (skip zero) : 4FF9E61B AccurateRip v1 signature : FCF12B9D AccurateRip v2 signature : 5E238A8A ->Track not present in AccurateRip database. Statistics Read error : 0 Jitter error (maybe fixed) : 0 Retry sector count : 0 Damaged sector count : 0

Track 08 Filename : /Users/sccouch/Documents/Torrents/These United States - These United States (2012) [FLAC]/08 So Sweet to be Back.flac Pre-gap length : 00:03:00

Track gain : -8.31 dB Peak : 0.999969 CRC32 hash (test run) : 81B1D5C6 CRC32 hash : 81B1D5C6 CRC32 hash (skip zero) : 118EA7FE AccurateRip v1 signature : 3BA90CDE AccurateRip v2 signature : FCEA40C7 ->Track not present in AccurateRip database. Statistics Read error : 0 Jitter error (maybe fixed) : 0 Retry sector count : 0 Damaged sector count : 0

Track 09 Filename : /Users/sccouch/Documents/Torrents/These United States - These United States (2012) [FLAC]/09 The Angel's Share.flac Pre-gap length : 00:03:37

Track gain : -7.92 dB Peak : 0.999969 CRC32 hash (test run) : ECDA04A6 CRC32 hash : ECDA04A6 CRC32 hash (skip zero) : E558B457 AccurateRip v1 signature : 9382203F AccurateRip v2 signature : 2AD3941B ->Track not present in AccurateRip database. Statistics Read error : 0 Jitter error (maybe fixed) : 0 Retry sector count : 0 Damaged sector count : 0

Track 10 Filename : /Users/sccouch/Documents/Torrents/These United States - These United States (2012) [FLAC]/10 The Park.flac Pre-gap length : 00:04:00

Track gain : -8.03 dB Peak : 0.999969 CRC32 hash (test run) : 9E5A58BD CRC32 hash : 9E5A58BD CRC32 hash (skip zero) : 39B1A552 AccurateRip v1 signature : CC37ED98 AccurateRip v2 signature : D7B2FE6B ->Track not present in AccurateRip database. Statistics Read error : 0 Jitter error (maybe fixed) : 0 Retry sector count : 0 Damaged sector count : 0

Track 11 Filename : /Users/sccouch/Documents/Torrents/These United States - These United States (2012) [FLAC]/11 Vince.flac Pre-gap length : 00:03:00

Track gain : -8.80 dB Peak : 0.999969 CRC32 hash (test run) : 0E8582A6 CRC32 hash : 0E8582A6 CRC32 hash (skip zero) : 9A787ECD AccurateRip v1 signature : 8F06CF76 AccurateRip v2 signature : 78A2ABE0 ->Track not present in AccurateRip database. Statistics Read error : 0 Jitter error (maybe fixed) : 0 Retry sector count : 0 Damaged sector count : 0

Track 12 Filename : /Users/sccouch/Documents/Torrents/These United States - These United States (2012) [FLAC]/12 Never Stop Falling.flac Pre-gap length : 00:04:00

Track gain : -8.30 dB Peak : 0.999969 CRC32 hash (test run) : 92E2D94B CRC32 hash : 92E2D94B CRC32 hash (skip zero) : E93C59D6 AccurateRip v1 signature : 2DE0EA15 AccurateRip v2 signature : 57620D15 ->Track not present in AccurateRip database. Statistics Read error : 0 Jitter error (maybe fixed) : 0 Retry sector count : 0 Damaged sector count : 0

No errors occurred

End of status report
  
TITLE "These United States"PERFORMER "These United States"REM GENRE "Rock"REM DATE "2012"REM DISCNUMBER 1REM TOTALDISCS 1REM DISCID A009C80CREM REPLAYGAIN_ALBUM_GAIN -8.56 dBREM REPLAYGAIN_ALBUM_PEAK 0.999969FILE "01 Dead & Gone.flac" WAVE TRACK 01 AUDIO TITLE "Dead & Gone" SONGWRITER "Jesse Elliott" ISRC USA6B1211201 FLAGS DCP REM REPLAYGAIN_TRACK_GAIN -9.04 dB REM REPLAYGAIN_TRACK_PEAK 0.999969 INDEX 01 00:00:00 TRACK 02 AUDIO TITLE "Born Young" SONGWRITER "Jesse Elliott" ISRC USA6B1211202 FLAGS DCP REM REPLAYGAIN_TRACK_GAIN -8.94 dB REM REPLAYGAIN_TRACK_PEAK 0.999969 INDEX 00 03:09:73FILE "02 Born Young.flac" WAVE INDEX 01 00:00:00 TRACK 03 AUDIO TITLE "Let the River in" SONGWRITER "Jesse Elliott" ISRC USA6B1211203 FLAGS DCP REM REPLAYGAIN_TRACK_GAIN -8.49 dB REM REPLAYGAIN_TRACK_PEAK 0.999969 INDEX 00 02:46:65FILE "03 Let the River in.flac" WAVE INDEX 01 00:00:00 TRACK 04 AUDIO TITLE "Miss Underground" SONGWRITER "Jesse Elliott" ISRC USA6B1211204 FLAGS DCP REM REPLAYGAIN_TRACK_GAIN -8.63 dB REM REPLAYGAIN_TRACK_PEAK 0.999969 INDEX 00 03:45:02FILE "04 Miss Underground.flac" WAVE INDEX 01 00:00:00 TRACK 05 AUDIO TITLE "Maps" SONGWRITER "Jesse Elliott" ISRC USA6B1211205 FLAGS DCP REM REPLAYGAIN_TRACK_GAIN -8.95 dB REM REPLAYGAIN_TRACK_PEAK 0.999969 INDEX 00 03:37:27FILE "05 Maps.flac" WAVE INDEX 01 00:00:00 TRACK 06 AUDIO TITLE "Two Gods" SONGWRITER "Jesse Elliott" ISRC USA6B1211206 FLAGS DCP REM REPLAYGAIN_TRACK_GAIN -8.18 dB REM REPLAYGAIN_TRACK_PEAK 0.999969 INDEX 00 03:19:13FILE "06 Two Gods.flac" WAVE INDEX 01 00:00:00 TRACK 07 AUDIO TITLE "Not Gone Tonight" SONGWRITER "Jesse Elliott" ISRC USA6B1211207 FLAGS DCP REM REPLAYGAIN_TRACK_GAIN -8.38 dB REM REPLAYGAIN_TRACK_PEAK 0.999969 INDEX 00 03:15:71FILE "07 Not Gone Tonight.flac" WAVE INDEX 01 00:00:00 TRACK 08 AUDIO TITLE "So Sweet to be Back" SONGWRITER "Jesse Elliott" ISRC USA6B1211208 FLAGS DCP REM REPLAYGAIN_TRACK_GAIN -8.31 dB REM REPLAYGAIN_TRACK_PEAK 0.999969 INDEX 00 02:48:57FILE "08 So Sweet to be Back.flac" WAVE INDEX 01 00:00:00 TRACK 09 AUDIO TITLE "The Angel's Share" SONGWRITER "Jesse Elliott" ISRC USA6B1211209 FLAGS DCP REM REPLAYGAIN_TRACK_GAIN -7.92 dB REM REPLAYGAIN_TRACK_PEAK 0.999969 INDEX 00 02:25:26FILE "09 The Angel's Share.flac" WAVE INDEX 01 00:00:00 TRACK 10 AUDIO TITLE "The Park" SONGWRITER "Jesse Elliott" ISRC USA6B1211210 FLAGS DCP REM REPLAYGAIN_TRACK_GAIN -8.03 dB REM REPLAYGAIN_TRACK_PEAK 0.999969 INDEX 00 03:09:67FILE "10 The Park.flac" WAVE INDEX 01 00:00:00 TRACK 11 AUDIO TITLE "Vince" SONGWRITER "Jesse Elliott" ISRC USA6B1211211 FLAGS DCP REM REPLAYGAIN_TRACK_GAIN -8.80 dB REM REPLAYGAIN_TRACK_PEAK 0.999969 INDEX 00 04:18:51FILE "11 Vince.flac" WAVE INDEX 01 00:00:00 TRACK 12 AUDIO TITLE "Never Stop Falling" SONGWRITER "Jesse Elliott" ISRC USA6B1211212 FLAGS DCP REM REPLAYGAIN_TRACK_GAIN -8.30 dB REM REPLAYGAIN_TRACK_PEAK 0.999969 INDEX 00 04:17:42FILE "12 Never Stop Falling.flac" WAVE INDEX 01 00:00:00
These United States is the quartet's fifth studio album to date and features collaborations with John McCauley of Deer Tick, Michael Nau of Cotton Jones, Matthew Houck of Phosphorescent, Laura Burhenn of The Mynabirds, Ben Sollee, David Moore of Langhorne Slim, Josh Read of Revival, and the entire Frontier Ruckus band. Recorded with Duane Lundy (Jim James, Ben Sollee, Adam Arcuragi) and Justin Craig, the LP is a rambunctious melting pot of rock-and-roll, psych pop, folk balladry, and outlaw country. It's a concept album that acts as a panoramic snapshot of numerous American musical styles over the past century, but still looks forward to the weird new world at the completion of the Mayan calendar.


Трекер:  [ 11-Июл-2012 16:23 ]

  

Скачать .torrent

Размер .torrent файла 11 KB


Размер: 259 MB
Хэш (hash) релиза: 0296ada5f02dc666e37d4dc393c85cf1aae33080

Торренты, похожие на These United States - These United States - 2012, скачать торрент

Форум Название Автор Размер S L Добавлен
Зарубежный Rock ·· (Folk Rock/Indie Rock) These United States - These United States - 2012, MP3, 320 kbps Galfimbul 10045081796 MB 0 0 1342113300

20:15

12-Июл-12

Зарубежный Rock ·· (Folk / Indie-Rock) These United States - These United States - 2012, MP3, 256 kbps Galfimbul 8237526179 MB 0 0 1340019660

14:41

18-Июн-12

Еще никто не оставлял запись к записи скачать торрент These United States - These United States - 2012, . Будь первым!

!Обратная связь