Скачать через торрент [SERIAL] Золотые. Барвиха 2 Фильм бесплатно в хорошем качестве torrent

Скачивайте на UnionPeer.org фильмы через торрент без регистрации. Новинки кино в хорошем качестве через торрент. На UnionPeer.org можно скачать через торрент фильмы 2014 и 2015 годов. Самые новые фильмы.

Скачать торрент [SERIAL] Золотые. Барвиха 2 бесплатно через .torrent фильм мультфильм сериал

Если у вас наблюдаются проблемы со скриншотами, переходом по ссылками, скачиванием торрентов - проблемы в блокировщике рекламы AdBlock. #хорошегоДня!


Статистика раздачи
Размер:  3.53 GB   |    Зарегистрирован:  5 лет 3 месяца   |    .torrent скачан:  48 раз   |   
Раздают:  1  
   
Загрузка...
 
Автор Сообщение

_N_

avatar _N_



Золотые. Барвиха 2
«Секс, любовь, дружба, зависть»
Год выпуска: 2011
Страна: Россия
Производство: "Расфокус Фильм" + ''ТНТ-Телесеть''
Статус сериала: идет показ
Жанр: драма, мелодрама, комедия
Продолжительность: ~ 45 мин эпизод
Режиссер: Михаил Соловьев, Владислав Каптур
Автор идеи: Елена Любарская, Григорий Зельцер, Яна Овруцкая
Продюссер: Александр Любимов, Роман Петренко, Александр Дулерайн
В ролях: Лянка Грыу, Наталья Бардо, Равшана Куркова, Марина Орлова, Анна Михайловская, Анна Хилькевич, Елена Меркулова, Андрей Дементьев, Артем Волков, Родион Галюченко
Описание:
Это новые истории о подростках элитной школы «Касталия». Они перешли в выпускной класс, и теперь им дозволено многое. Они тратят деньги родителей и мечтают о светлом будущем. Они еще дети, но они уже решают не детские проблемы. Секс, любовь, дружба, зависть. Им придется отвечать за свои поступки.

В новом сезоне герои сериала заканчивают школу, на носу — выпускные экзамены. Но рублевским детям и их «городским» одноклассникам не до учебы в школе. Ведь реальная жизнь ежедневно преподносит жестокие уроки. В классе появляется новенькая из «рублевских». Девушка ставит перед серьезным выбором сразу троих героев сериала. Евгений встречается сразу с двумя девушками, но в итоге находит неожиданный компромисс. Вика знакомит Башню с родителями, и эта встреча переворачивает всю жизнь городского парня. Ксения учится быть по-взрослому сексуальной для любимого, но ее старания не оценят должным образом. Антон Высоцкий влюбляется в девушку с неоднозначным прошлым, а Фендер, как всегда, случайно влипает в серьезную историю. К выпускному каждый приходит со своим багажом переживаний.
Тех. информация:

Качество: DVBRip
Формат: MP4
Кодек видео: H.264
Кодек аудио: AAC
Видео: 480x272 (16:9), 25.00 fps, AVC, H.264, ~ 608 kbps avg, 0.186 bit/pixel
Аудио: Russian 48 kHz, AAC-LC, 1/0 (C) ch, ABR, ~128 kbps

General
Complete name : E:\Ripped_PSP\Золотые. Барвиха 2\01. Золотые.DVBRip.mp4
Format : MPEG-4
Format profile : Base Media
Codec ID : isom
File size : 265 MiB
Duration : 50mn 6s
Overall bit rate : 740 Kbps
Encoded date : UTC 2011-05-29 00:59:19
Tagged date : UTC 2011-05-29 00:59:19

Video
ID : 1
Format : AVC
Format/Info : Advanced Video Codec
Format profile : <a href="mailto:Main@L3.0" class="postLink">Main@L3.0</a>
Format settings, CABAC : Yes
Format settings, ReFrames : 3 frames
Codec ID : avc1
Codec ID/Info : Advanced Video Coding
Duration : 50mn 6s
Bit rate mode : Variable
Bit rate : 608 Kbps
Maximum bit rate : 2 266 Kbps
Width : 480 pixels
Height : 272 pixels
Display aspect ratio : 16:9
Frame rate mode : Constant
Frame rate : 25.000 fps
Color space : YUV
Chroma subsampling : 4:2:0
Bit depth : 8 bits
Scan type : Progressive
Bits/(Pixel*Frame) : 0.186
Stream size : 218 MiB (82%)
Title : Imported with GPAC 0.4.6-DEV (internal rev. 7)
Writing library : x264 core 108 r1790 8eaf8a6
Encoding settings : cabac=1 / ref=3 / deblock=1:-1:0 / analyse=0x1:0x131 / me=umh / subme=7 / psy=1 / psy_rd=1.00:0.20 / mixed_ref=1 / me_range=16 / chroma_me=1 / trellis=2 / 8x8dct=0 / cqm=0 / deadzone=21,11 / fast_pskip=0 / chroma_qp_offset=-3 / threads=3 / sliced_threads=0 / nr=0 / decimate=0 / interlaced=0 / constrained_intra=0 / bframes=3 / b_pyramid=0 / b_adapt=2 / b_bias=0 / direct=3 / weightb=1 / open_gop=0 / weightp=2 / keyint=250 / keyint_min=25 / scenecut=40 / intra_refresh=0 / rc_lookahead=60 / rc=2pass / mbtree=1 / bitrate=608 / ratetol=1.0 / qcomp=0.60 / qpmin=10 / qpmax=51 / qpstep=4 / cplxblur=20.0 / qblur=0.5 / ip_ratio=1.40 / aq=1:1.00
Encoded date : UTC 2011-05-29 00:59:19
Tagged date : UTC 2011-05-29 00:59:35

Audio
ID : 2
Format : AAC
Format/Info : Advanced Audio Codec
Format profile : LC
Codec ID : 40
Duration : 50mn 6s
Bit rate mode : Variable
Bit rate : 128 Kbps
Maximum bit rate : 152 Kbps
Channel(s) : 2 channels
Channel positions : Front: L R
Sampling rate : 48.0 KHz
Compression mode : Lossy
Stream size : 45.9 MiB (17%)
Encoded date : UTC 2011-07-02 23:35:39
Tagged date : UTC 2011-07-02 23:35:47


Трекер:  [ 16-Июл-2012 09:22 ]

  

Скачать .torrent

Размер .torrent файла 19 KB


Размер: 3.53 GB
Хэш (hash) релиза: e0ee465b3995c0fd4a9a5ef8171cfc89255866c2
Подписка на обновления:

Еще никто не оставлял запись к записи скачать торрент [SERIAL] Золотые. Барвиха 2 . Будь первым!

!Обратная связь