Скачать через торрент [SERIAL4PSP] Живая мишень Human Target Фильм бесплатно в хорошем качестве torrent

Скачивайте на UnionPeer.org фильмы через торрент без регистрации. Новинки кино в хорошем качестве через торрент. На UnionPeer.org можно скачать через торрент фильмы 2014 и 2015 годов. Самые новые фильмы.

Скачать торрент [SERIAL4PSP] Живая мишень Human Target бесплатно через .torrent фильм мультфильм сериал

Если у вас наблюдаются проблемы со скриншотами, переходом по ссылками, скачиванием торрентов - проблемы в блокировщике рекламы AdBlock. #хорошегоДня!


Статистика раздачи
Размер:  2.69 GB   |    Зарегистрирован:  5 лет 1 месяц   |    .torrent скачан:  35 раз   |   
Раздают:  1  
   
Загрузка...
 
Автор Сообщение

_N_

avatar _N_




Живая мишень
«He's a guardian. Not an angel.»
Оригинальное название: Human Target
Год выпуска: 2010
Страна: США
Студия: ''Warner Bros. Television / Human Target Films / DC Entertainment''
Номер сезона: 1-й сезон (12 эпизодов)
Статус сериала: съёмки продолжаются
Жанр: боевик, драма, приключения, криминал
Продолжительность: ~ 44 мин эпизод
Перевод: профессиональный, многоголосый, закадровый (релиз группы: )
Режиссер: Стив Бойум, Пол А. Эдвардс, Кевин Хукс
Автор идеи: Кармине Инфантино, Джонатан Е. Стейнберг, Лен Уайн
Продюссер: Грэйс Гилрой, Стивен Скайя, Стив Бойум
В ролях: Марк Вэлли, Чи МакБрайд, Джеки Эрл Хейли, Индира Варма, Джанет Монтгомери, Эммануэль Вожье
Описание:
Только храбрый и самоотверженный человек может стать живой мишенью для того, чтобы спасти жизнь другому. Human Target — основанная на одноименном комиксе экшн-драма, главный герой которой — Кристофер Чэнс, единственный в своем роде частный охранник. Называть его можно как угодно — защитником, охранником или телохранителем, но для Чэнса главное одно — спасти жизнь своего клиента.

Когда угрозу убийства невозможно ликвидировать стандартными методами, Чэнс полностью вливается в жизнь клиента, и становится мишенью для убийцы. Если менеджеру корпорации угрожает уволенный подчиненный, Чэнс становится аудитором корпорации. Если президенту банка сообщили о намечающейся краже, Чэнс станет банковским клерком.

В каждом деле Кристоферу помогают его бизнес-партнер Уинстон и фрилансер Герреро. В каждом деле Кристофер становится на линию огня, и пытается спасти клиента, раскрывая тайны заговора. Во время каждого дела мы немного узнаем и о самом Чэнсе. Знает ли кто-нибудь, кто такой этот Кристофер Чэнс и какие секреты похоронены у него в прошлом? Что заставляет его каждый раз становиться живой мишенью?

Season 1, Episode 1: Pilot / Пилот
Season 1, Episode 2: Rewind / Обратная перемотка
Season 1, Episode 3: Embassy Row / Скандал в посольстве
Season 1, Episode 4: Sanctuary / Святилище
Season 1, Episode 5: Run / Бегство
Season 1, Episode 6: Lockdown / Взаперти
Season 1, Episode 7: Salvage & Reclamation / Спасение и рекламация имущества
Season 1, Episode 8: Baptiste / Баптист
Season 1, Episode 9: Corner Man / Секундант
Season 1, Episode 10: Tanarak / Танарак
Season 1, Episode 11: Victoria / Виктория
Season 1, Episode 12: Christopher Chance / Кристофер Ченс
Тех. информация:

Качество: HDTVRip
Формат: MP4 PSP AVC
Кодек видео: H.264
Кодек аудио: AAC
Видео: 480x272 (16:9), 23.976 fps, AVC, H.264, ~ 608 kbps avg, 0.194 bit/pixel
Аудио: Russian 48 kHz, AAC-LC, 2/0 (L,R) ch, ABR, ~128 kbps

General
Complete name : J:\Ripped_PSP\Живая мишень (Human Target, 1 season)\human.target.s01e01.webdl.rus.mp4
Format : MPEG-4
Format profile : Base Media
Codec ID : isom
File size : 228 MiB
Duration : 43mn 10s
Overall bit rate : 739 Kbps
Encoded date : UTC 2010-11-28 09:17:27
Tagged date : UTC 2010-11-28 09:17:27

Video
ID : 1
Format : AVC
Format/Info : Advanced Video Codec
Format profile : <a href="mailto:Main@L3.0" class="postLink">Main@L3.0</a>
Format settings, CABAC : Yes
Format settings, ReFrames : 2 frames
Codec ID : avc1
Codec ID/Info : Advanced Video Coding
Duration : 43mn 10s
Bit rate mode : Variable
Bit rate : 608 Kbps
Maximum bit rate : 1 889 Kbps
Width : 480 pixels
Height : 272 pixels
Display aspect ratio : 16:9
Frame rate mode : Constant
Frame rate : 23.976 fps
Color space : YUV
Chroma subsampling : 4:2:0
Bit depth : 8 bits
Scan type : Progressive
Bits/(Pixel*Frame) : 0.194
Stream size : 188 MiB (82%)
Writing library : x264 core 65 r999kMod cc51047
Encoding settings : cabac=1 / ref=2 / deblock=1:-2:-1 / analyse=0x1:0x131 / me=umh / subme=7 / psy_rd=1.0:0.0 / mixed_ref=1 / me_range=16 / chroma_me=1 / trellis=2 / 8x8dct=0 / cqm=0 / deadzone=21,11 / chroma_qp_offset=-2 / threads=2 / thread_queue=2 / nr=0 / decimate=0 / mbaff=0 / bframes=3 / b_pyramid=0 / b_adapt=1 / b_bias=0 / direct=3 / wpredb=1 / keyint=250 / keyint_min=25 / scenecut=40(pre) / rc=2pass / bitrate=608 / ratetol=1.0 / qcomp=0.60 / qpmin=10 / qpmax=51 / qpstep=4 / cplxblur=20.0 / qblur=0.5 / ip_ratio=1.40 / pb_ratio=1.30 / aq=1:1.00
Encoded date : UTC 2010-11-28 09:17:27
Tagged date : UTC 2010-11-28 09:17:32

Audio
ID : 2
Format : AAC
Format/Info : Advanced Audio Codec
Format version : Version 4
Format profile : LC
Format settings, SBR : No
Codec ID : 40
Duration : 43mn 10s
Bit rate mode : Variable
Bit rate : 128 Kbps
Maximum bit rate : 178 Kbps
Channel(s) : 2 channels
Channel positions : Front: L R
Sampling rate : 48.0 KHz
Stream size : 39.5 MiB (17%)
Encoded date : UTC 2010-11-28 09:17:31
Tagged date : UTC 2010-11-28 09:17:32


Трекер:  [ 16-Июл-2012 09:29 ]

  

Скачать .torrent

Размер .torrent файла 14 KB


Размер: 2.69 GB
Хэш (hash) релиза: aab6d2740047ce182b26db6e7cec3e7f2466e1ac
Подписка на обновления:

Еще никто не оставлял запись к записи скачать торрент [SERIAL4PSP] Живая мишень Human Target . Будь первым!

!Обратная связь