Скачать через торрент [ONGOING Фильм бесплатно в хорошем качестве torrent

Скачивайте на UnionPeer.org фильмы через торрент без регистрации. Новинки кино в хорошем качестве через торрент. На UnionPeer.org можно скачать через торрент фильмы 2014 и 2015 годов. Самые новые фильмы.

Скачать торрент [ONGOING бесплатно через .torrent фильм мультфильм сериал

Если у вас наблюдаются проблемы со скриншотами, переходом по ссылками, скачиванием торрентов - проблемы в блокировщике рекламы AdBlock. #хорошегоДня!


Статистика раздачи
Размер:  1.13 GB   |    Зарегистрирован:  5 лет 1 месяц   |    .torrent скачан:  48 раз   |   
Раздают:  1  
   
Загрузка...
 
Автор Сообщение

_N_

avatar _N_


Тринадцатый
Оригинальное название: XIII: The Series
Год выпуска: 2011
Страна: Канада, Франция
Студия: ''Prodigy Pictures / XIII Series''
Номер сезона: 1 сезон (13 эпизодов)
Статус сериала: съёмки продолжаются
Жанр: боевик, триллер
Продолжительность: ~ 44 мин эпизод
Перевод: профессиональный, многоголосый, закадровый (релиз группы: & )
Режиссер: Дуан Кларк, Ален Тасма
Автор идеи: Жан Ван Хамме, Уильям Вэнс, Филипп Лион
Продюссер: Питер Мохан, Дуан Кларк
В ролях: Стюарт Таунсенд, Аиша Тайлер, Вирджиния Ледуайен, Грег Брайк, Паулино Нюнс, Стивен МакХэтти, Катерина Мурино, Тед Атертон
Описание:
Первая в США женщина-президент убита метким снайперским выстрелом во время выступления в День ветеранов. Убийца не найден. Вскоре после этого в лесу находят таинственного парашютиста. Он ранен и не помнит абсолютно ничего из своего прошлого. На его груди загадочная татуировка — «XIII». Теперь молодому человеку предстоит понять кто он такой и попытаться раскрыть правительственный заговор…

Season 1, Episode 1: Pilot
Season 1, Episode 2: Green Falls
Season 1, Episode 3: Lockdown
Season 1, Episode 4: The Irish Version
Season 1, Episode 5: Training Camp
Season 1, Episode 6: Costa Verde
Season 1, Episode 7: Undertow
Season 1, Episode 8: Hunting Party
Season 1, Episode 9: The Bank Job
Season 1, Episode 10: The Train
Season 1, Episode 11: The Bunker
Season 1, Episode 12: The Key
Season 1, Episode 13: Revelation
Тех. информация:

Качество: WEB-DLRip
Формат: MP4 PSP AVC
Кодек видео: H.264
Кодек аудио: AAC
Видео: 480x272 (16:9), 23.976 fps, AVC, H.264, ~ 608 kbps avg, 0.194 bit/pixel
Аудио: Russian 48 kHz, AAC-LC, 2/0 (L,R) ch, ABR, ~128 kbps

General
Complete name : E:\Ripped_PSP\XIII\XIII.s01e01.web-dl.rus.mp4
Format : MPEG-4
Format profile : Base Media
Codec ID : isom
File size : 233 MiB
Duration : 43mn 59s
Overall bit rate : 740 Kbps
Encoded date : UTC 2011-05-22 23:54:28
Tagged date : UTC 2011-05-22 23:54:28

Video
ID : 1
Format : AVC
Format/Info : Advanced Video Codec
Format profile : <a href="mailto:Main@L3.0" class="postLink">Main@L3.0</a>
Format settings, CABAC : Yes
Format settings, ReFrames : 3 frames
Codec ID : avc1
Codec ID/Info : Advanced Video Coding
Duration : 43mn 59s
Bit rate mode : Variable
Bit rate : 608 Kbps
Maximum bit rate : 3 339 Kbps
Width : 480 pixels
Height : 272 pixels
Display aspect ratio : 16:9
Frame rate mode : Constant
Frame rate : 23.976 fps
Color space : YUV
Chroma subsampling : 4:2:0
Bit depth : 8 bits
Scan type : Progressive
Bits/(Pixel*Frame) : 0.194
Stream size : 191 MiB (82%)
Title : Imported with GPAC 0.4.6-DEV (internal rev. 7)
Writing library : x264 core 108 r1790 8eaf8a6
Encoding settings : cabac=1 / ref=3 / deblock=1:-1:0 / analyse=0x1:0x131 / me=umh / subme=7 / psy=1 / psy_rd=1.00:0.20 / mixed_ref=1 / me_range=16 / chroma_me=1 / trellis=2 / 8x8dct=0 / cqm=0 / deadzone=21,11 / fast_pskip=0 / chroma_qp_offset=-3 / threads=3 / sliced_threads=0 / nr=0 / decimate=0 / interlaced=0 / constrained_intra=0 / bframes=3 / b_pyramid=0 / b_adapt=2 / b_bias=0 / direct=3 / weightb=1 / open_gop=0 / weightp=2 / keyint=250 / keyint_min=23 / scenecut=40 / intra_refresh=0 / rc_lookahead=60 / rc=2pass / mbtree=1 / bitrate=608 / ratetol=1.0 / qcomp=0.60 / qpmin=10 / qpmax=51 / qpstep=4 / cplxblur=20.0 / qblur=0.5 / ip_ratio=1.40 / aq=1:1.00
Encoded date : UTC 2011-05-22 23:54:28
Tagged date : UTC 2011-05-22 23:54:38

Audio
ID : 2
Format : AAC
Format/Info : Advanced Audio Codec
Format profile : LC
Codec ID : 40
Duration : 43mn 59s
Bit rate mode : Variable
Bit rate : 128 Kbps
Maximum bit rate : 148 Kbps
Channel(s) : 2 channels
Channel positions : Front: L R
Sampling rate : 48.0 KHz
Compression mode : Lossy
Stream size : 40.2 MiB (17%)
Encoded date : UTC 2011-05-22 23:54:36
Tagged date : UTC 2011-05-22 23:54:38


Трекер:  [ 16-Июл-2012 09:53 ]

  

Скачать .torrent

Размер .torrent файла 12 KB


Размер: 1.13 GB
Хэш (hash) релиза: 36acd43cd6c4fa1826bc1e9428abbd6214ea053a
Подписка на обновления:

Еще никто не оставлял запись к записи скачать торрент [ONGOING . Будь первым!

!Обратная связь