Скачать через торрент [SERIAL] 90210: Новое поколение 90210: The Next Generation Фильм бесплатно в хорошем качестве torrent

Скачивайте на UnionPeer.org фильмы через торрент без регистрации. Новинки кино в хорошем качестве через торрент. На UnionPeer.org можно скачать через торрент фильмы 2014 и 2015 годов. Самые новые фильмы.

Скачать торрент [SERIAL] 90210: Новое поколение 90210: The Next Generation бесплатно через .torrent фильм мультфильм сериал

Если у вас наблюдаются проблемы со скриншотами, переходом по ссылками, скачиванием торрентов - проблемы в блокировщике рекламы AdBlock. #хорошегоДня!


Статистика раздачи
Размер:  4.8 GB   |    Зарегистрирован:  5 лет 3 месяца   |    .torrent скачан:  1060 раз   |   
Раздают:  1  
   
Загрузка...
 
Автор Сообщение

_N_

avatar _N_


90210: Новое поколение
Оригинальное Название: 90210: The Next Generation
Год выхода: 2009
Жанр: драма, мелодрама
Сезон: 2 Сезон
Количество серий: 22
Перевод: Одноголосный [greys2008&Arkadiy]
Продолжительность: серия ~ 44 мин.
Режиссер: Джеймс Л. Конвей
В ролях: Шенайя Граймс, Тристан Уайлдз, Анна-Линн Маккорд, Дастин Миллиган, Майкл Стэгер, Джессика Строуп, Джессика Лаундс, Райан Эгголд, Роб Эстас, Лори Локлин, Джессика Уолтер
Описание:Вот и подходит к концу лето, которое многие школьники провели на летних занятиях: из-за звонка Энни в полицию, многих задержали и в качестве наказания они должны были посещать летние занятия. Однако впереди несколько дней свободы до начала нового учебного года, и многое изменилось в жизни героев.

Энни стала всеобщим изгоем после ссоры с Наоми. К тому же девушке не дают покоя воспоминания о её поступке: в ночь, когда она уехала с вечеринки, Энни сбила неизвестного мужчину машиной и уехала прочь. Кроме того, грянули новые неприятности: Наоми заполучила фото обнажённой Энни, которая, напившись, развлекаясь с парнем по имени Марк Дрисколл. И что ещё хуже, в школе объявляется новый ученик - Тэдди Монтгомери. Именно он нашёл тело мужчины, который по неизвестным причинам завещал огромное состояние школе Западного Беверли-Хиллз. Кроме того, у Энни вскоре начинается роман с Джаспером - племянником погибшего добродетеля.

У Гарри и Дебби тоже хлопот достаточно: мало того, что Диксон, скрывая свой возраст, начал встречаться с Сашей - женщиной, которая значительно старше него, так ещё вскоре она заявляет, что ждёт от юноши ребёнка. И только им кажется, что окрылённая счастьем Энни наконец вернулась к жизни, пригласив Джаспера на ужин в дом Уилсонов, как Диксон ошарашивает их сплетней, что Джаспер - наркодилер. Вскоре, выясняется, что это правда - именно он продавал Адрианне наркотики после её нервного срыва.
1. To New Beginnings! / За новые начала!
2. To Sext Or Not To Sext / Сексемэска
3. Sit Down, You're Rocking The Boat / Сядь – ты раскачиваешь лодку!
4. The Porn King / Порно-магнат
5. Environmental Hazards / Экологическая катастрофа
6. Wild Alaskan Salmon / Дикий лосось с Аляски
7. Unmasked / Маски долой!
8. Women's Intuition / Женская интуиция
9. A Trip To The Moon / Путешествие на Луну
10. To Thine Own Self Be True / Оставаться верным себе
11. And... They Are Off / Скачки
12. Winter Wonderland / Зимняя сказка
13. Rats & Heroes / Предатели и герои
14. Girl Fight / Девичьи разборки
15. What's Past Is Prologue / Это лишь начало
16. Clark Raving Mad / Наоми в гневе
17. Sweaty Palms & Weak Knees / Нервная дрожь
18. Another Another Chance / Очередной второй шанс
19. Multiple Choices / Альтернатива
20. Meet The Parents / Знакомство с родителями!
21. Javianna / Хавьер + Адрианна
22. Confessions / Признания
Качество: DVDRip
Формат: MPEG-4
Видео кодек: H264
Аудио кодек: AAC
Видео: H264, 480x272, 25 fps, 636 Kbps
Аудио: Rus, AAC, 48 kHz,2 ch, ~125 Kbps
General
Complete name : D:\Скачка\Раздача\90210_2\90210S02E01_greys2008_arkadiy_x264.mp4
Format : MPEG-4
Format profile : Base Media / Version 2
Codec ID : mp42
File size : 226 MiB
Duration : 41mn 21s
Overall bit rate : 765 Kbps
Encoded date : UTC 2011-04-14 23:30:23
Tagged date : UTC 2011-04-14 23:30:31
Writing application : mp4creator 1.4.4

Video
ID : 1
Format : AVC
Format/Info : Advanced Video Codec
Format profile : <a href="mailto:Main@L2.1" class="postLink">Main@L2.1</a>
Format settings, CABAC : Yes
Format settings, ReFrames : 2 frames
Codec ID : avc1
Codec ID/Info : Advanced Video Coding
Duration : 41mn 21s
Bit rate mode : Variable
Bit rate : 636 Kbps
Width : 480 pixels
Height : 272 pixels
Display aspect ratio : 16:9
Frame rate mode : Constant
Frame rate : 25.000 fps
Color space : YUV
Chroma subsampling : 4:2:0
Bit depth : 8 bits
Scan type : Progressive
Bits/(Pixel*Frame) : 0.195
Stream size : 188 MiB (83%)
Language : English
Encoded date : UTC 2011-04-14 23:30:23
Tagged date : UTC 2011-04-14 23:30:28

Audio
ID : 2
Format : AAC
Format/Info : Advanced Audio Codec
Format profile : LC
Codec ID : 40
Duration : 41mn 20s
Bit rate mode : Variable
Bit rate : 125 Kbps
Maximum bit rate : 175 Kbps
Channel(s) : 2 channels
Channel positions : Front: L R
Sampling rate : 48.0 KHz
Compression mode : Lossy
Stream size : 37.1 MiB (16%)
Language : English
Encoded date : UTC 2011-04-14 23:30:30
Tagged date : UTC 2011-04-14 23:30:31
[/spoiler


Трекер:  [ 18-Июл-2012 07:45 ]

  

Скачать .torrent

Размер .torrent файла 27 KB


Размер: 4.8 GB
Хэш (hash) релиза: f1b2f705788ce5ca86983edc253558e9f03c26a4
Подписка на обновления:

Торренты, похожие на [SERIAL] 90210: Новое поколение 90210: The Next Generation скачать торрент

Форум Название Автор Размер S L Добавлен
Видео для Консолей ·· [SERIAL] 90210: Новое поколение / 90210: The Next Generation [3 сезон] [01-22] (Джеймс Л. Конвей) [2010 г., Драма, DVDRip] [MTV] MVO Galfimbul 46323040394.31 GB 0 0 1343641620

12:47

30-Июл-12

Еще никто не оставлял запись к записи скачать торрент [SERIAL] 90210: Новое поколение 90210: The Next Generation . Будь первым!

!Обратная связь