..."/> ...">

Скачать через торрент [SERIAL] Люди Альфа Псионики Фильм бесплатно в хорошем качестве torrent

Скачивайте на UnionPeer.org фильмы через торрент без регистрации. Новинки кино в хорошем качестве через торрент. На UnionPeer.org можно скачать через торрент фильмы 2014 и 2015 годов. Самые новые фильмы.

Скачать торрент [SERIAL] Люди Альфа Псионики бесплатно через .torrent фильм мультфильм сериал

Если у вас наблюдаются проблемы со скриншотами, переходом по ссылками, скачиванием торрентов - проблемы в блокировщике рекламы AdBlock. #хорошегоДня!


Статистика раздачи
Размер:  2.56 GB   |    Зарегистрирован:  5 лет   |    .torrent скачан:  42 раза   |   
Раздают:  1  
   
Загрузка...
 
Автор Сообщение

Galfimbul

avatar Galfimbul



Люди Альфа / Псионики
«... вместе они могут творить чудеса»
Оригинальное название: Alphas
Год выпуска: 2011
Страна: США
Студия: ''BermanBraun''
Кол - во сезонов: 1 сезон (12 эпизодов)
Статус сериала: идет показ
Жанр: фантастика, боевик, триллер, драма
Продолжительность: ~ 45 мин эпизод
Перевод : профессиональный, многоголосый, закадровый (релиз группа )
Режиссер: Ник Копус
Сценарий: Зак Пенн
Продюссер: Гэйл Берман, Ллойд Браун, Зак Пенн
В ролях: Райан Картрайт, Уоррен Кристи, Азита Ганизада, Лаура Меннелл, Дэвид Стрэтэйрн, Мэлик Йоба, Махершалалхашбаз Али, Мэтт Бойс и др.
Описание:
"Alphas" - команда людей со сверхразвитыми неврологическими способностями. Каждый персонаж в отдельности лишь немного отличается от обычного человека, и в одиночку не способен на что-то экстраординарное, но вместе они могут творить чудеса.

Всего первый сезон проекта «Alphas» будет состоять из 11 эпизодов, в числе которых будет включена и 90-минутная пилотная серия.

Основным сценаристом сериала стал Зак Пенн (Zak Penn), сотворивший такие киноистории, как «The Incredible Hulk» (Невероятный Халк) и «X-Men: The Last Stand» (Люди Икс: последняя битва). Пост исполнительного продюсера и режиссера «Alphas» был отдан Джеку Бендеру (Jack Bender), работавшему с такими нашумевшими телешедеврами последних лет, как «Lost» (Остаться в живых), «Alias» (Шпионка) и «The Sopranos» (Клан Сопрано).

Season 1, Episode 1: Pilot
Season 1, Episode 2: Cause and Effect
Season 1, Episode 3: Anger Management
Season 1, Episode 4: Rosetta
Season 1, Episode 5: Never Let Me Go
Season 1, Episode 6: Bill and Gary's Excellent Adventure
Season 1, Episode 7: Catch and Release
Season 1, Episode 8: A Short Time in Paradise
Season 1, Episode 9: Blind Spot
Season 1, Episode 10: The Unusual Suspects
Season 1, Episode 11: Original Sin
Тех. информация:
Качество: WEB-DLRip
Формат: MP4 PSP AVC
Кодек видео: H.264
Кодек аудио: AAC
Видео: 480x272 (16:9), 23.976 fps, AVC, H.264, ~ 608 kbps avg, 0.194 bit/pixel
Аудио: Russian 48 kHz, AAC-LC, 2/0 (L,R) ch, ABR, ~128 kbps
Пять человек обнаружили, что у них есть сверхчеловеческие способности, которые они со временем начинают использовать для поддержания справедливости. Они называются командой Alpha во глове которой стоит доктор Ли Розен. В скором они обнаруживают, что есть и другие люди, с теми же возможностями которые не собираются использовать их во благо.

Почему "Псионики"?
"Псионик" – существо, наделенное паронормальными способностями, к которым относятся телекинез, телепатия, пирокинез и разного рода биоэнергические дисциплины.
Все это как раз таки относится к сериалу и тем самым в качестве альтернативного варианта было выбрано это название.

Способности героев
Нина - Способность к внушению. Управляет волей людей.
Билл - Повышенная сила. Может контролировать выброс адреналина в собственном теле.
Рэйчел - Гиперчувствительность.
Гэри - Трансдукция. Может считывать огромное количество частот, включая телевидение, Wi-Fi и передачи сотового телефона.
Кристиан Хикс – гиперкинез, почти идеальная ловкость и координация.
График выхода эпизодов (в США по понедельникам):
Эпизод 1 - Pilot - доступно
Эпизод 2 - Cause & Effect - доступно
Эпизод 3 - Anger Management - доступно
Эпизод 4 - Rosetta - доступно
Эпизод 5 - Never Let Me Go - доступно
Эпизод 6 - Bill and Gary's Excellent Adventure - доступно
Эпизод 7 - Catch and Release - доступно
Эпизод 8 - A Short Time in Paradise - доступно
Эпизод 9 - Blind Spot - доступно
Эпизод 10 - The Unusual Suspects - доступно
Эпизод 11 - Original Sin - доступно
Эпизод 12 (финальный) - Finale - 3 октября.

General
Complete name : E:\Ripped_PSP\Альфа (Alphas, 2011)\Alphas.S01E01.web-dl.Gravi.mp4
Format : MPEG-4
Format profile : Base Media
Codec ID : isom
File size : 340 MiB
Duration : 1h 4mn
Overall bit rate : 740 Kbps
Encoded date : UTC 2011-07-15 09:42:27
Tagged date : UTC 2011-07-15 09:42:27

Video
ID : 1
Format : AVC
Format/Info : Advanced Video Codec
Format profile : <a href="mailto:Main@L3.0" class="postLink">Main@L3.0</a>
Format settings, CABAC : Yes
Format settings, ReFrames : 3 frames
Format settings, GOP : M=1, N=24
Codec ID : avc1
Codec ID/Info : Advanced Video Coding
Duration : 1h 4mn
Bit rate mode : Variable
Bit rate : 608 Kbps
Maximum bit rate : 2 565 Kbps
Width : 480 pixels
Height : 272 pixels
Display aspect ratio : 16:9
Frame rate mode : Constant
Frame rate : 23.976 fps
Color space : YUV
Chroma subsampling : 4:2:0
Bit depth : 8 bits
Scan type : Progressive
Bits/(Pixel*Frame) : 0.194
Stream size : 279 MiB (82%)
Writing library : x264 core 115 r1936 7a9e08d
Encoding settings : cabac=1 / ref=3 / deblock=1:-1:0 / analyse=0x1:0x131 / me=umh / subme=7 / psy=1 / psy_rd=1.00:0.20 / mixed_ref=1 / me_range=16 / chroma_me=1 / trellis=2 / 8x8dct=0 / cqm=0 / deadzone=21,11 / fast_pskip=0 / chroma_qp_offset=-3 / threads=3 / sliced_threads=0 / nr=0 / decimate=0 / interlaced=0 / bluray_compat=0 / constrained_intra=0 / bframes=3 / b_pyramid=0 / b_adapt=2 / b_bias=0 / direct=3 / weightb=1 / open_gop=0 / weightp=2 / keyint=250 / keyint_min=23 / scenecut=40 / intra_refresh=0 / rc_lookahead=60 / rc=2pass / mbtree=1 / bitrate=608 / ratetol=1.0 / qcomp=0.60 / qpmin=0 / qpmax=69 / qpstep=4 / cplxblur=20.0 / qblur=0.5 / ip_ratio=1.40 / aq=1:1.00
Encoded date : UTC 2011-07-15 09:42:27
Tagged date : UTC 2011-07-15 09:42:39

Audio
ID : 2
Format : AAC
Format/Info : Advanced Audio Codec
Format profile : LC
Codec ID : 40
Duration : 1h 4mn
Bit rate mode : Variable
Bit rate : 128 Kbps
Maximum bit rate : 259 Kbps
Channel(s) : 2 channels
Channel positions : Front: L R
Sampling rate : 48.0 KHz
Compression mode : Lossy
Stream size : 58.8 MiB (17%)
Encoded date : UTC 2011-07-15 09:42:37
Tagged date : UTC 2011-07-15 09:42:39


Трекер:  [ 30-Июл-2012 12:56 ]

  

Скачать .torrent

Размер .torrent файла 14 KB


Размер: 2.56 GB
Хэш (hash) релиза: 752c45acef89cc74fddf1047345981fed30e3f80
Подписка на обновления:

Еще никто не оставлял запись к записи скачать торрент [SERIAL] Люди Альфа Псионики . Будь первым!

!Обратная связь