Скачать через торрент [SERIAL] Роковые ошибки Тодда Маргарета The Increasingly Poor Decisions Of Todd Margaret Фильм бесплатно в хорошем качестве torrent

Скачивайте на UnionPeer.org фильмы через торрент без регистрации. Новинки кино в хорошем качестве через торрент. На UnionPeer.org можно скачать через торрент фильмы 2014 и 2015 годов. Самые новые фильмы.

Скачать торрент [SERIAL] Роковые ошибки Тодда Маргарета The Increasingly Poor Decisions Of Todd Margaret бесплатно через .torrent фильм мультфильм сериал

Если у вас наблюдаются проблемы со скриншотами, переходом по ссылками, скачиванием торрентов - проблемы в блокировщике рекламы AdBlock. #хорошегоДня!


Статистика раздачи
Размер:  388 MB   |    Зарегистрирован:  5 лет   |    .torrent скачан:  17 раз   |   
Раздают:  1  
   
Загрузка...
 
Автор Сообщение

Galfimbul

avatar Galfimbul


Роковые ошибки Тодда Маргарета
Оригинальное название: The Increasingly Poor Decisions Of Todd Margaret. Season 2
Год выпуска: 2012 г.
Страна: США
Жанр: комедия
Продолжительность: ~25 мин./серия
Перевод: Профессиональный (двухголосый закадровый) - Кубик в кубе
Режиссер:

Алекс Хардкэсл

В ролях:

Дэвид Кросс (David Cross)
Блейк Харрисон (Blake Harrison)
Шарон Хорган (Sharon Horgan)
Уилл Арнетт (Will Arnett)
Джон Форчун (John Fortune)
Сара Паскоу (Sara Pascoe)
Колин Сэлмон (Colin Salmon)
Расс Тэмблин (Russ Tamblyn)
Стюарт Скудамор (Stewart Scudamore)
Кайван Новак (Kayvan Novak)
Зара Ахмади (Zahra Ahmadi)
Спайк Джонз (Spike Jonze)
Описание: Американец Тодд Маргарет (Девид Кросс) волей случая попадает в лондонский филиал компании, в которой он работает. Все, что от него требуется - продать за неделю несколько тысяч корейских энергетических напитков, прежде чем приедет его босс с проверкой. Проблема в том, что он ничего не знает ни о британской культуре, ни о торговле.
2x01. Todd's Terrible Day Ends and His Next Terrible Day Begins
2х02. Todd and his Valet Arrive in Leeds and What They Saw There
2x03. How the Liver and the Salad Conspired to Ruin Todd's Good Deed
Торрент обновлен! Добавлена 3-я серия!!!
Качество видео: HDTVRip
Формат: MP4
Видео кодек: H.264
Аудио кодек: AAC
Видео: MPEG4 Video (H264) 480x272 672 kbps
Аудио: AAC 48000Hz stereo 129 kbps
Релиз:

Озвучка: Кубик в кубе
Перевод: Инга Бу
<!--/code_head--> <div class="c-body">General
Complete name                            : C:\Films\Для PSP\The Increasingly Poor Decisions Of Todd Margaret - Роковые ошибки Тодда Маргарета (2 сезон. Кубик в кубе) [PSP]\Todd.s02e01.rus.eng.Kybik.v.Kybe.mp4
Format                                   : MPEG-4
Format profile                           : Base Media
Codec ID                                 : isom
File size                                : 129 MiB
Duration                                 : 22mn 29s
Overall bit rate mode                    : Variable
Overall bit rate                         : 805 Kbps
Encoded date                             : UTC 2012-01-25 19:06:51
Tagged date                              : UTC 2012-01-25 19:06:51

Video
ID                                       : 1
Format                                   : AVC
Format/Info                              : Advanced Video Codec
Format profile                           : <a href="mailto:Main@L3.0" class="postLink">Main@L3.0</a>
Format settings, CABAC                   : Yes
Format settings, ReFrames                : 3 frames
Codec ID                                 : avc1
Codec ID/Info                            : Advanced Video Coding
Duration                                 : 22mn 29s
Bit rate                                 : 672 Kbps
Maximum bit rate                         : 1 690 Kbps
Width                                    : 480 pixels
Height                                   : 272 pixels
Display aspect ratio                     : 16:9
Frame rate mode                          : Constant
Frame rate                               : 23.976 fps
Color space                              : YUV
Chroma subsampling                       : 4:2:0
Bit depth                                : 8 bits
Scan type                                : Progressive
Bits/(Pixel*Frame)                       : 0.215
Stream size                              : 108 MiB (84%)
Writing library                          : x264 core 56 svn-667M
Encoding settings                        : cabac=1 / ref=2 / deblock=1:0:0 / analyse=0x1:0x131 / me=umh / subme=6 / brdo=1 / mixed_ref=1 / me_range=16 / chroma_me=1 / trellis=1 / 8x8dct=0 / cqm=0 / deadzone=21,11 / chroma_qp_offset=0 / threads=4 / nr=0 / decimate=1 / mbaff=0 / bframes=3 / b_pyramid=0 / b_adapt=1 / b_bias=0 / direct=3 / wpredb=1 / bime=1 / keyint=250 / keyint_min=25 / scenecut=40(pre) / rc=2pass / bitrate=672 / ratetol=1.0 / rceq='blurCplx^(1-qComp)' / qcomp=0.60 / qpmin=10 / qpmax=51 / qpstep=4 / cplxblur=20.0 / qblur=0.5 / ip_ratio=1.40 / pb_ratio=1.30
Encoded date                             : UTC 2012-01-25 19:06:51
Tagged date                              : UTC 2012-01-25 19:06:55

Audio
ID                                       : 2
Format                                   : AAC
Format/Info                              : Advanced Audio Codec
Format profile                           : LC
Codec ID                                 : 40
Duration                                 : 22mn 29s
Bit rate mode                            : Variable
Bit rate                                 : 129 Kbps
Maximum bit rate                         : 141 Kbps
Channel(s)                               : 2 channels
Channel positions                        : Front: L R
Sampling rate                            : 48.0 KHz
Compression mode                         : Lossy
Stream size                              : 20.8 MiB (16%)
Encoded date                             : UTC 2012-01-25 19:06:55
Tagged date                              : UTC 2012-01-25 19:06:55 <!--/code--><!--/code_wrap-->


Трекер:  [ 30-Июл-2012 12:49 ]

  

Скачать .torrent

Размер .torrent файла 16 KB


Размер: 388 MB
Хэш (hash) релиза: cbcab8562a025bc5233f65725b9ea3617bce0f50
Подписка на обновления:

Еще никто не оставлял запись к записи скачать торрент [SERIAL] Роковые ошибки Тодда Маргарета The Increasingly Poor Decisions Of Todd Margaret . Будь первым!

!Обратная связь