Скачать через торрент [SERIAL] 90210: Новое поколение 90210: The Next Generation Фильм бесплатно в хорошем качестве torrent

Скачивайте на UnionPeer.org фильмы через торрент без регистрации. Новинки кино в хорошем качестве через торрент. На UnionPeer.org можно скачать через торрент фильмы 2014 и 2015 годов. Самые новые фильмы.

Скачать торрент [SERIAL] 90210: Новое поколение 90210: The Next Generation бесплатно через .torrent фильм мультфильм сериал

Если у вас наблюдаются проблемы со скриншотами, переходом по ссылками, скачиванием торрентов - проблемы в блокировщике рекламы AdBlock. #хорошегоДня!


Статистика раздачи
Размер:  4.31 GB   |    Зарегистрирован:  5 лет 2 месяца   |    .torrent скачан:  44 раза   |   
Раздают:  1  
   
Загрузка...
 
Автор Сообщение

Galfimbul

avatar Galfimbul


Оригинальное Название: 90210: Новое поколение
Год выхода: 2010
Жанр: драма, мелодрама
Сезон: 3 Сезон
Количество серий: 22
Перевод:профессиональный многоголосный закадровый (Студия "Кравец" по заказу MTV)
Продолжительность: серия ~ 44 мин.
Режиссер: Джеймс Л. Конвей
В ролях: Шенайя Граймс, Тристан Уайлдз, Анна-Линн Маккорд, Дастин Миллиган, Майкл Стэгер, Джессика Строуп, Джессика Лаундс, Райан Эгголд, Роб Эстас, Лори Локлин, Джессика Уолтер
Описание:Энни пытается справиться с последствиями правды, которую она раскрыла Лиаму и родителям, в то время как Гарри решает оставить семью. Лиам поможет Энни справиться со всеми этими неприятностями, вот только неизвестно, как это скажется на дружбе девушки с Наоми. Адрианна и Навид счастливы вместе, но девушка всё же принимет предложение Хавьера насчёт турне. К Айви приезжает друг её детства — коварный парень по имени Оскар и начинает ухаживать как за подругой, так и за её матерью, музыкальным продюсером. Тем временем, выпускной год для Наоми обещает быть не из лёгких.
1. Senior Year, Baby! / Наш последний год в школе, малыш!
2. Age Of Inheritance / Возраст наследования
3. 2021 Vision / Каким я буду через 10 лет
4. The Bachelors / Холостяки
5. Catch Me If You Cannon / Охота на Кэннона
6. How Much Is That Liam In The Window / Неужели это Лиам в витрине?
7. I See London, I See France... / Достижения
8. Mother Dearest / Дорогая мама
9. They’re Playing Her Song / Её песня на радио
10. Best Lei'd Plans / Добрые намерения
11. Holiday Madness / Рождественское безумие
12. Liars / Лжецы
13. It’s Getting Hot In Here / Становится жарко
14. All About A Boy / Всё о парне
15. Revenge With The Nerd / Месть в компании ботаника
16. It’s High Time / Крутые времена
17. Blue Naomi / Наоми в синем
18. The Enchanted Donkey / Заколдованный ослик
19. Nerdy Little Secrets / Маленькие тайны ботана
20. Women On The Verge / Женщины на грани
21. The Prom Before The Storm / Выпускной накануне бури
22. To The Future! / Навстречу будущему!
Общее
Полное имя : D:\Скачка\Раздача\90210_3\90210.s03e01.dvdrip.xvid-reward_x264.mp4
Формат : MPEG-4
Профиль формата : Base Media / Version 2
Идентификатор кодека : mp42
Размер файла : 197 Мбайт
Продолжительность : 39 м.
Общий поток : 688 Кбит/сек
Дата кодирования : UTC 2011-10-11 16:12:22
Дата пометки : UTC 2011-10-11 16:12:26
Программа кодирования : mp4creator 1.4.4

Видео
Идентификатор : 1
Формат : AVC
Формат/Информация : Advanced Video Codec
Профиль формата : <a href="mailto:Main@L2.1" class="postLink">Main@L2.1</a>
Параметр CABAC формата : Да
Параметр ReFrames формата : 2 кадры
Идентификатор кодека : avc1
Идентификатор кодека/Информация : Advanced Video Coding
Продолжительность : 39 м.
Вид битрейта : Переменный
Битрейт : 559 Кбит/сек
Ширина : 480 пикс.
Высота : 272 пикс.
Соотношение сторон : 16:9
Режим частоты кадров : Постоянный
Частота кадров : 25,000 кадр/сек
Цветовое пространство : YUV
Подвыборка цветности : 4:2:0
Битовая глубина : 8 бит
Тип развёртки : Прогрессивная
Бит/(Пиксели*Кадры) : 0.171
Размер потока : 160 Мбайт (81%)
Язык : English
Дата кодирования : UTC 2011-10-11 16:12:22
Дата пометки : UTC 2011-10-11 16:12:24

Аудио
Идентификатор : 2
Формат : AAC
Формат/Информация : Advanced Audio Codec
Профиль формата : LC
Идентификатор кодека : 40
Продолжительность : 39 м.
Вид битрейта : Переменный
Битрейт : 125 Кбит/сек
Максимальный битрейт : 261 Кбит/сек
Канал(ы) : 2 канала(ов)
Расположение каналов : Front: L R
Частота : 48,0 КГц
Метод сжатия : С потерями
Размер потока : 35,8 Мбайт (18%)
Язык : English
Дата кодирования : UTC 2011-10-11 16:12:26
Дата пометки : UTC 2011-10-11 16:12:26
Качество видео: DVDRip
Формат: MPEG-4
Видео кодек: H.264
Аудио кодек: AAC
Видео: H264, 480x272, 25 fps, ~559 Kbps
Аудио: Rus, AAC, 48 kHz,2 ch, ~125 Kbps

Трекер:  [ 30-Июл-2012 12:47 ]

  

Скачать .torrent

Размер .torrent файла 25 KB


Размер: 4.31 GB
Хэш (hash) релиза: 05997c1c0de7b87a63fb14110a329681b14e8d14
Подписка на обновления:

Торренты, похожие на [SERIAL] 90210: Новое поколение 90210: The Next Generation скачать торрент

Форум Название Автор Размер S L Добавлен
Видео для Консолей ·· [SERIAL] 90210: Новое поколение / 90210: The Next Generation [ Джеймс Л. Конвей] [2 сезон] [01-22] [2009 г., драма, мелодрама, DVDRip][greys2008&Arkadiy] VO _N_ 51500272484.8 GB 0 0 1342586700

07:45

18-Июл-12

Еще никто не оставлял запись к записи скачать торрент [SERIAL] 90210: Новое поколение 90210: The Next Generation . Будь первым!

!Обратная связь