Скачать через торрент [SERIAL4PSP] Черная Гадюка IIThe Black Adder II Фильм бесплатно в хорошем качестве torrent

Скачивайте на UnionPeer.org фильмы через торрент без регистрации. Новинки кино в хорошем качестве через торрент. На UnionPeer.org можно скачать через торрент фильмы 2014 и 2015 годов. Самые новые фильмы.

Скачать торрент [SERIAL4PSP] Черная Гадюка IIThe Black Adder II бесплатно через .torrent фильм мультфильм сериал

Если у вас наблюдаются проблемы со скриншотами, переходом по ссылками, скачиванием торрентов - проблемы в блокировщике рекламы AdBlock. #хорошегоДня!


Статистика раздачи
Размер:  929 MB   |    Зарегистрирован:  5 лет   |    .torrent скачан:  26 раз   |   
Раздают:  1  
   
Загрузка...
 
Автор Сообщение

Galfimbul

avatar Galfimbul



Черная Гадюка II
Оригинальное название: The Black Adder II
Год выпуска: 1986
Страна: Великобритания
Жанр: комедия, исторический фильм
Количество сезонов: 2 из 4
Количество серий: 6 эп. по ~30 мин.
Перевод: Профессиональный (двуголосый) (Артмедиа-групп)
Режисcёр:

Ричард Кёртис,
Роуэн Аткинсон

В ролях:

Роуэн Аткинсон
Тим Макиннерни
Тони Робинсон
Миранда Ричардсон
Стивен Фрай
Пэтси Берн
Описание:Действие второго сезона происходит во время правления Елизаветы I, которую играет Миранда Ричардсон. Главным действующим лицом является Эдмунд, лорд Блэкэддер, праправнук Эдмунда Чёрной Гадюки, занимающий должность при дворе. В каждой серии он каким-либо образом взаимодействует с королевой и её приближёнными: претенциозным министром церкви лордом Мелчеттом (Стивен Фрай) и взбалмошной, придурковатой Нерси, бывшей няней королевы. Конечно, не забыты и Болдрик с Перси, они появляются в каждой серии.
Черная Гадюка испытывает необъяснимое влечение к своему слуге. Вскоре выясняется, что все неспроста: на самом деле это женщина! Как человек прямой и решительный, Блэкэддер намерен жениться!
Королева назначает Блэкэддера главным палачом. Он внедряет новаторские методы – казнит порциями, чтобы сэкономить время. Беда в том, что порой кто-то уже обезглавлен, а королева – возьми да подпиши ему помилование!
Сэр Уолтер Рэйли привозит королеве экзотического картофеля, чем льстит ее капризам. Черная Гадюка решает посвятить себя морским походам, для чего заручается поддержкой безногого морского волка.
Королева всячески препятствует попыткам Черной Гадюки занять денег. Но ему во что бы то ни стало нужно расплатиться с кровожадным епископом, которому по глупости задолжал.
Блэкэддер приглашен к своим чопорным тетушке и дядюшке. Они хотят сообщить, что не оставляют ему наследства. Но у Черной Гадюки другие планы: тем же вечером проходит состязание любителей пива!
Черную Гадюку внезапно похищают. В компании с лордом Мелчеттом. И это после того, как королева поклялась, что больше не заплатит ни одного выкупа в своей жизни. Никогда и ни при каких условиях.

1. Колокольчики / Bells
2. Голова / Head
3. Картофель / Potato
4. Деньги / Money
5. Пиво / Beer
6. Оковы / Chains
General
Complete name : H:\The Black Adder\2 Blackadder II\01 bells.mp4
Format : MPEG-4
Format profile : Base Media
Codec ID : isom
File size : 160 MiB
Duration : 30mn 11s
Overall bit rate : 740 Kbps
Encoded date : UTC 2011-03-20 07:37:43
Tagged date : UTC 2011-03-20 07:37:43

Video
ID : 1
Format : AVC
Format/Info : Advanced Video Codec
Format profile : <a href="mailto:Main@L3.0" class="postLink">Main@L3.0</a>
Format settings, CABAC : Yes
Format settings, ReFrames : 2 frames
Codec ID : avc1
Codec ID/Info : Advanced Video Coding
Duration : 30mn 11s
Bit rate mode : Variable
Bit rate : 608 Kbps
Maximum bit rate : 1 773 Kbps
Width : 368 pixels
Height : 272 pixels
Display aspect ratio : 4:3
Frame rate mode : Constant
Frame rate : 25.000 fps
Resolution : 24 bits
Colorimetry : 4:2:0
Scan type : Progressive
Bits/(Pixel*Frame) : 0.243
Stream size : 131 MiB (82%)
Writing library : x264 core 65 r999kMod cc51047
Encoding settings : cabac=1 / ref=2 / deblock=1:0:0 / analyse=0x1:0x131 / me=umh / subme=6 / psy_rd=1.0:0.0 / mixed_ref=1 / me_range=16 / chroma_me=1 / trellis=1 / 8x8dct=0 / cqm=0 / deadzone=21,11 / chroma_qp_offset=-2 / threads=4 / thread_queue=4 / nr=0 / decimate=1 / mbaff=0 / bframes=3 / b_pyramid=0 / b_adapt=1 / b_bias=0 / direct=3 / wpredb=1 / keyint=250 / keyint_min=25 / scenecut=40(pre) / rc=2pass / bitrate=608 / ratetol=1.0 / qcomp=0.60 / qpmin=10 / qpmax=51 / qpstep=4 / cplxblur=20.0 / qblur=0.5 / ip_ratio=1.40 / pb_ratio=1.30 / aq=1:1.00
Encoded date : UTC 2011-03-20 07:37:43
Tagged date : UTC 2011-03-20 07:37:49

Audio
ID : 2
Format : AAC
Format/Info : Advanced Audio Codec
Format version : Version 4
Format profile : LC
Format settings, SBR : No
Codec ID : 40
Duration : 30mn 11s
Bit rate mode : Variable
Bit rate : 128 Kbps
Maximum bit rate : 140 Kbps
Channel(s) : 2 channels
Channel positions : L R
Sampling rate : 48.0 KHz
Resolution : 16 bits
Stream size : 27.7 MiB (17%)
Encoded date : UTC 2011-03-20 07:37:48
Tagged date : UTC 2011-03-20 07:37:49

Качество: DVDRip
Формат: MP4
Видео кодек: H.264
Аудио кодек: AAC
Видео: MPEG4 Video (H264) 368x272 25,000fps 608Kbps
Аудио: AAC 48000Hz stereo 128Kbps


Трекер:  [ 30-Июл-2012 12:46 ]

  

Скачать .torrent

Размер .torrent файла 19 KB


Размер: 929 MB
Хэш (hash) релиза: e0e1b4e723429081724df502e65bf52d2cd57bd7
Подписка на обновления:

Еще никто не оставлял запись к записи скачать торрент [SERIAL4PSP] Черная Гадюка IIThe Black Adder II . Будь первым!

!Обратная связь