Скачать через торрент [SERIAL] Заброшенное место для смерти A Lonely Place For Dying Фильм бесплатно в хорошем качестве torrent

Скачивайте на UnionPeer.org фильмы через торрент без регистрации. Новинки кино в хорошем качестве через торрент. На UnionPeer.org можно скачать через торрент фильмы 2014 и 2015 годов. Самые новые фильмы.

Скачать торрент [SERIAL] Заброшенное место для смерти A Lonely Place For Dying бесплатно через .torrent фильм мультфильм сериал

Если у вас наблюдаются проблемы со скриншотами, переходом по ссылками, скачиванием торрентов - проблемы в блокировщике рекламы AdBlock. #хорошегоДня!


Статистика раздачи
Размер:  142 MB   |    Зарегистрирован:  5 лет   |    .torrent скачан:  30 раз   |   
Раздают:  1  
   
Загрузка...
 
Автор Сообщение

Galfimbul

avatar Galfimbul


Заброшенное место для смерти
Оригинальное название: A Lonely Place For Dying
Год выпуска: 2011
Страна: США
Жанр: Шпионский триллер
Кол-во Сезонов: 1
Кол-во Серий: 1 (5)
Перевод: Любительский (одноголосый, закадровый) - Gravi-TV
Продолжительность: 00:27:12

Режиссёр: Джастин Юджин Эванс

В ролях: Росс Маркуанд, Джеймс Кромвелл, Майкл Винкотт, Майкл Сковотти

Описание: Агент-перебежчик Николай Дзержинский (Росс Маркуанд) связывается с главным редактором и главой Вашингтон Пост Говардом Саймонсом (Джеймс Кромвелл), чтобы встретиться с журналистом в заброшенной мексиканской тюрьме. Руководитель проекта в ЦРУ Энтони Грингласс (Майкл Винкотт) посылает специального агента Роберта Харпера (Майкл Сковотти), чтобы перехватить Николая и... убить его. Созданный талантливым режиссёром Джастином Юджином Эвансом, этот захватывающий шпионский триллер уже стал фестивальным хитом.

Качество: HDRip [Исх. 720p]
Формат: MP4
Видео кодек: H.264
Аудио кодек: AAC
Видео: 480x208 (1:2.35), 23.976 fps, H.264, ~600 kbps, 0.251 bit/pixel
Аудио: AAC LC, 128kbps, 48000kHz
D:\Kinoblya\A Lonely Place For Dying\A.Lonely.Place.for.Dying.Part.1.2011.mp4
General
Complete name : D:\Kinoblya\A Lonely Place For Dying\A.Lonely.Place.for.Dying.Part.1.2011.mp4
Format : MPEG-4
Format profile : Base Media
Codec ID : isom
File size : 142 MiB
Duration : 27mn 12s
Overall bit rate : 732 Kbps
Encoded date : UTC 2011-09-14 16:18:26
Tagged date : UTC 2011-09-14 16:18:26
Video #1
ID : 1
Format : AVC
Format/Info : Advanced Video Codec
Format profile : <a href="mailto:Main@L3.0" class="postLink">Main@L3.0</a>
Format settings, CABAC : Yes
Format settings, ReFrames : 3 frames
Codec ID : avc1
Codec ID/Info : Advanced Video Coding
Duration : 27mn 12s
Bit rate mode : Variable
Bit rate : 600 Kbps
Maximum bit rate : 3 234 Kbps
Width : 480 pixels
Height : 208 pixels
Display aspect ratio : 2.35:1
Frame rate mode : Constant
Frame rate : 23.976 fps
Resolution : 24 bits
Colorimetry : 4:2:0
Scan type : Progressive
Bits/(Pixel*Frame) : 0.251
Stream size : 117 MiB (82%)
Title : Imported with GPAC 0.4.6-DEV (build 1)
Writing library : x264 core 79 r1342kMod e8501ef
Encoding settings : cabac=1 / ref=3 / deblock=1:-1:0 / analyse=0x1:0x131 / me=umh / subme=7 / psy=1 / psy_rd=1.0:0.2 / mixed_ref=1 / me_range=16 / chroma_me=1 / trellis=2 / 8x8dct=0 / cqm=0 / deadzone=21,11 / chroma_qp_offset=-3 / threads=6 / nr=0 / decimate=1 / mbaff=0 / constrained_intra=0 / bframes=3 / b_pyramid=0 / b_adapt=2 / b_bias=0 / direct=3 / wpredb=1 / wpredp=2 / keyint=250 / keyint_min=25 / scenecut=40 / rc_lookahead=60 / rc=2pass / mbtree=1 / bitrate=600 / ratetol=1.0 / qcomp=0.60 / qpmin=10 / qpmax=51 / qpstep=4 / cplxblur=20.0 / qblur=0.5 / ip_ratio=1.40 / aq=1:1.00 / cabac=1 / ref=3 / deblock=1:-1:0 / analyse=0x1:0x131 / me=umh / subme=7 / psy=1 / psy_rd=1.0:0.2 / mixed_ref=1 / me_range=16 / chroma_me=1 / trellis=2 / 8x8dct=0 / cqm=0 / deadzone=21,11 / chroma_qp_offset=-3 / threads=6 / nr=0 / decimate=1 / mbaff=0 / constrained_intra=0 / bframes=3 / b_pyramid=0 / b_adapt=2 / b_bias=0 / direct=3 / wpredb=1 / wpredp=2 / keyint=250 / keyint_min=25 / scenecut=40 / rc_lookahead=60 / rc=2pass / mbtree=1 / bitrate=600 / ratetol=1.0 / qcomp=0.60 / qpmin=10 / qpmax=51 / qpstep=4 / cplxblur=20.0 / qblur=0.5 / ip_ratio=1.40 / aq=1:1.00
Encoded date : UTC 2011-09-14 16:18:26
Tagged date : UTC 2011-09-14 16:18:29
Audio #2
ID : 2
Format : AAC
Format/Info : Advanced Audio Codec
Format version : Version 4
Format profile : LC
Format settings, SBR : No
Codec ID : 40
Duration : 27mn 12s
Bit rate mode : Variable
Bit rate : 128 Kbps
Maximum bit rate : 143 Kbps
Channel(s) : 2 channels
Channel positions : L R
Sampling rate : 48.0 KHz
Resolution : 16 bits
Stream size : 24.9 MiB (17%)
Encoded date : UTC 2011-09-14 16:18:28
Tagged date : UTC 2011-09-14 16:18:29


Трекер:  [ 30-Июл-2012 12:42 ]

  

Скачать .torrent

Размер .torrent файла 23 KB


Размер: 142 MB
Хэш (hash) релиза: bcc1271114c88d54d07b0359a716b03011b55661
Подписка на обновления:

Еще никто не оставлял запись к записи скачать торрент [SERIAL] Заброшенное место для смерти A Lonely Place For Dying . Будь первым!

!Обратная связь