Скачать через торрент [SERIAL4PSP] Воздействие Leverage Фильм бесплатно в хорошем качестве torrent

Скачивайте на UnionPeer.org фильмы через торрент без регистрации. Новинки кино в хорошем качестве через торрент. На UnionPeer.org можно скачать через торрент фильмы 2014 и 2015 годов. Самые новые фильмы.

Скачать торрент [SERIAL4PSP] Воздействие Leverage бесплатно через .torrent фильм мультфильм сериал

Если у вас наблюдаются проблемы со скриншотами, переходом по ссылками, скачиванием торрентов - проблемы в блокировщике рекламы AdBlock. #хорошегоДня!


Статистика раздачи
Размер:  3.34 GB   |    Зарегистрирован:  5 лет   |    .torrent скачан:  43 раза   |   
Раздают:  1  
   
Загрузка...
 
Автор Сообщение

Galfimbul

avatar Galfimbul



Воздействие
«Get Ready to Get Even.»
Оригинальное название: Leverage
Год выпуска: 2009-2010
Страна: США
Студия: ''Electric Entertainment''
Номер сезона: 2 сезон (15 эпизодов)
Статус сериала: завершен 3 сезон
Жанр: триллер, драма, криминал, детектив
Продолжительность: ~ 44 мин эпизод
Перевод : профессиональный, многоголосый, закадровый (релиз группа )
Режиссер: Дин Девлин, Марк Роскин, Джонатан Фрейкс
Автор идеи: Крис Дауни, Джон Эбауд, Майкл Колтон
Продюссер: Эми Берг, Керри Гловер
В ролях: Тимоти Хаттон, Джина Беллман, Кристиан Кэйн, Бэт Рисграф, Элдис Ходж, Джери Райан, Марк Шеппард
Описание:
Нейт Форд бывший следователь страховой компании возглавляет команду в которую входят: компьютерный мошенник Хардисон, воровка и вообще безбашенная особа Паркер, актриса и мошенница Софи и специалист широкого профиля Эллиот. Эта команда помогает людям пострадавшим от рук сильных мира сего, а попросту — воров.

Season 2, Episode 1: The Beantown Bailout Job / Дело о Бостонской субсидии
Season 2, Episode 2: The Tap-Out Job / Дело о поражении
Season 2, Episode 3: The Order 23 Job / Дело об эпидемии
Season 2, Episode 4: The Fairy Godparents Job / Дело о волшебных феях
Season 2, Episode 5: The Three Days of the Hunter Job / Дело о "Трёх днях Хантер"
Season 2, Episode 6: The Top Hat Job / Дело о фокусах
Season 2, Episode 7: The Two Live Crew Job / Дело о двух командах
Season 2, Episode 8: The Ice Man Job / Ледяное дело
Season 2, Episode 9: The Lost Heir Job / Дело о потерянном наследнике
Season 2, Episode 10: The Runway Job / Дело о подиуме
Season 2, Episode 11: The Bottle Job / Дело о бутылке
Season 2, Episode 12: The Zanzibar Marketplace Job / Дело о Занзибарском базаре
Season 2, Episode 13: The Future Job / Дело о будущем
Season 2, Episode 14: The Three Strikes Job / Дело о бейсболе
Season 2, Episode 15: The Maltese Falcon Job / Дело о Мальтийском соколе
Тех. информация:
Качество: WEB-DLRip
Формат: MP4 PSP AVC
Кодек видео: H.264
Кодек аудио: AAC
Видео: 480x272 (16:9), 23.976 fps, AVC, H.264, ~ 608 kbps avg, 0.194 bit/pixel
Аудио: Russian 48 kHz, AAC-LC, 2/0 (L,R) ch, ABR, ~128 kbps

General
Complete name : E:\Ripped_PSP\Воздействие (Leverage)\Воздействие (Leverage, 2 сезон)\Leverage.s02e01.webdll.rus.mp4
Format : MPEG-4
Format profile : Base Media
Codec ID : isom
File size : 228 MiB
Duration : 43mn 14s
Overall bit rate : 738 Kbps
Encoded date : UTC 2011-01-24 16:33:48
Tagged date : UTC 2011-01-24 16:33:48

Video
ID : 1
Format : AVC
Format/Info : Advanced Video Codec
Format profile : <a href="mailto:Main@L3.0" class="postLink">Main@L3.0</a>
Format settings, CABAC : Yes
Format settings, ReFrames : 3 frames
Format settings, GOP : M=1, N=48
Codec ID : avc1
Codec ID/Info : Advanced Video Coding
Duration : 43mn 14s
Bit rate mode : Variable
Bit rate : 608 Kbps
Maximum bit rate : 2 608 Kbps
Width : 480 pixels
Height : 272 pixels
Display aspect ratio : 16:9
Frame rate mode : Constant
Frame rate : 23.976 fps
Color space : YUV
Chroma subsampling : 4:2:0
Bit depth : 8 bits
Scan type : Progressive
Bits/(Pixel*Frame) : 0.194
Stream size : 188 MiB (82%)
Title : Imported with GPAC 0.4.6-DEV (internal rev. 7)
Writing library : x264 core 108 r1790 8eaf8a6
Encoding settings : cabac=1 / ref=3 / deblock=1:-1:0 / analyse=0x1:0x131 / me=umh / subme=7 / psy=1 / psy_rd=1.00:0.20 / mixed_ref=1 / me_range=16 / chroma_me=1 / trellis=2 / 8x8dct=0 / cqm=0 / deadzone=21,11 / fast_pskip=0 / chroma_qp_offset=-3 / threads=3 / sliced_threads=0 / nr=0 / decimate=0 / interlaced=0 / constrained_intra=0 / bframes=3 / b_pyramid=0 / b_adapt=2 / b_bias=0 / direct=3 / weightb=1 / open_gop=0 / weightp=2 / keyint=250 / keyint_min=23 / scenecut=40 / intra_refresh=0 / rc_lookahead=60 / rc=2pass / mbtree=1 / bitrate=608 / ratetol=1.0 / qcomp=0.60 / qpmin=10 / qpmax=51 / qpstep=4 / cplxblur=20.0 / qblur=0.5 / ip_ratio=1.40 / aq=1:1.00
Encoded date : UTC 2011-01-24 16:33:48
Tagged date : UTC 2011-01-24 16:33:55

Audio
ID : 2
Format : AAC
Format/Info : Advanced Audio Codec
Format version : Version 4
Format profile : LC
Format settings, SBR : No
Codec ID : 40
Duration : 43mn 13s
Bit rate mode : Variable
Bit rate : 126 Kbps
Maximum bit rate : 151 Kbps
Channel(s) : 2 channels
Channel positions : Front: L R
Sampling rate : 48.0 KHz
Compression mode : Lossy
Stream size : 39.1 MiB (17%)
Encoded date : UTC 2011-01-24 16:33:53
Tagged date : UTC 2011-01-24 16:33:55


Трекер:  [ 30-Июл-2012 12:37 ]

  

Скачать .torrent

Размер .torrent файла 18 KB


Размер: 3.34 GB
Хэш (hash) релиза: 6866f580d3ebf3bef000575f680aff9fc9bcbe8f
Подписка на обновления:

Еще никто не оставлял запись к записи скачать торрент [SERIAL4PSP] Воздействие Leverage . Будь первым!

!Обратная связь