Скачать через торрент [SERIAL] Событие The Event Фильм бесплатно в хорошем качестве torrent

Скачивайте на UnionPeer.org фильмы через торрент без регистрации. Новинки кино в хорошем качестве через торрент. На UnionPeer.org можно скачать через торрент фильмы 2014 и 2015 годов. Самые новые фильмы.

Скачать торрент [SERIAL] Событие The Event бесплатно через .torrent фильм мультфильм сериал

Если у вас наблюдаются проблемы со скриншотами, переходом по ссылками, скачиванием торрентов - проблемы в блокировщике рекламы AdBlock. #хорошегоДня!


Статистика раздачи
Размер:  4.78 GB   |    Зарегистрирован:  5 лет   |    .torrent скачан:  51 раз   |   
Раздают:  1  
   
Загрузка...
 
Автор Сообщение

Galfimbul

avatar Galfimbul


Событие
Оригинальное Название: The Event
Год выхода: 2010 г.
Страна: США
Жанр: триллер, криминал, детектив
Номер Сезона: 1 Сезон
Кол-во Серий: 22 Серии (из 22)
Продолжительность: ~ 45 мин эпизод
Перевод: профессиональный (дублированный) © канал "ТВ3"
Режиссер: Джеффри Рейнер
Сценарий: Ник Ваутерс
Продюссер: Джей Битти, Стивен Сассен, Дэн Дворкин
В ролях: Джейсон Риттер, Сара Ремер, Лора Иннес, Йен Энтони Дэйл, Скотт Паттерсон, Тейлор Коул, Лиза Видал и др.
Описание:
Загадочная и напряженная история с непредсказуемыми поворотами сюжета начинается с пропажи невесты главного героя, а точнее будет сказать, исчезновения, поскольку, возникает впечатление, что ее и не существовало: никто не может вспомнить, что когда-либо ее видел, или что-либо слышал о ней. Бросающийся на поиски герой, исполненный решимости разгадать загадку, добирается до самых верхних эшелонов власти и неожиданно понимает, что стал пешкой в таинственной игре, ведущейся на уровне сильных мира сего, известных и, до поры, нет. И игра эта, похоже, может не только повлиять на жизнь каждого, но и перевернуть наши представления о мире.

01. Я вам еще не все рассказала (I Haven't Told You Everything)
02. В безопасности (To Keep Us Safe)
03. Оградить их от правды (Protect Them from the Truth)
04. Вопрос жизни и смерти (A Matter of Life and Death)
05. Жертвы войны (Casualties of War)
06. Преданность (Loyalty)
07. Я знаю кто вы (I Know Who You Are)
08. Ради блага страны (For the Good of Our Country)
09. Остаться в этом мире (Your World to Take)
10. Все изменится (Everything Will Change)
11. И тогда их было больше (And Then There Were More)
12. Иностранка (Inostranka)
13. Поворот (Turnabout)
14. Ответный ход (A Message Back)
15. Лицом к лицу (Face Off)
16. Хоронят не только мертвых (You Bury Other Things Too)
17. Обезглавить врага (Cut Off the Head)
18. Напряжение (Strain)
19. Мы или они (Us or Them)
20. Кому-то жить, кому-то умереть (One Will Live, One Will Die)
21. Начало конца (The Beginning of the End)
22. Прибытие (Arrival) - new

Источник: WEB-DL, HD, 720p
Качество: WEB-DLRip
Формат: MP4 PSP AVC
Кодек видео: H.264
Кодек аудио: AAC
Видео: 480x272 (16:9), 23.976 fps, AVC, H.264, ~ 608 kbps avg, 0.194 bit/pixel
Аудио: Russian 48 kHz, AAC-LC, 2/0 (L,R) ch, ABR, ~128 kbps
General
Complete name : J:\Ripped_PSP\Событие (The Evant, 1 season)\The.Event.s01e01.web-dl.rus.mp4
Format : MPEG-4
Format profile : Base Media
Codec ID : isom
File size : 223 MiB
Duration : 42mn 34s
Overall bit rate : 732 Kbps
Encoded date : UTC 2010-10-08 09:56:24
Tagged date : UTC 2010-10-08 09:56:24

Video
ID : 1
Format : AVC
Format/Info : Advanced Video Codec
Format profile : <a href="mailto:Main@L3.0" class="postLink">Main@L3.0</a>
Format settings, CABAC : Yes
Format settings, ReFrames : 2 frames
Codec ID : avc1
Codec ID/Info : Advanced Video Coding
Duration : 42mn 34s
Bit rate mode : Variable
Bit rate : 608 Kbps
Maximum bit rate : 2 484 Kbps
Width : 480 pixels
Height : 272 pixels
Display aspect ratio : 16:9
Frame rate mode : Constant
Frame rate : 23.976 fps
Color space : YUV
Chroma subsampling : 4:2:0
Bit depth : 8 bits
Scan type : Progressive
Bits/(Pixel*Frame) : 0.194
Stream size : 182 MiB (82%)
Writing library : x264 core 86 r1442M 781d300
Tagged date : UTC 2010-10-08 09:56:48

Audio
ID : 2
Format : AAC
Format/Info : Advanced Audio Codec
Format version : Version 4
Format profile : LC
Format settings, SBR : No
Codec ID : 40
Duration : 42mn 34s
Bit rate mode : Variable
Bit rate : 129 Kbps
Maximum bit rate : 216 Kbps
Channel(s) : 2 channels
Channel positions : Front: L R
Sampling rate : 48.0 KHz
Stream size : 39.3 MiB (18%)
Encoded date : UTC 2010-10-08 09:56:46
Tagged date : UTC 2010-10-08 09:56:48


Трекер:  [ 30-Июл-2012 12:38 ]

  

Скачать .torrent

Размер .torrent файла 13 KB


Размер: 4.78 GB
Хэш (hash) релиза: 633ac363e97387e03251be9e2956ba8f21bc1a6f
Подписка на обновления:

Еще никто не оставлял запись к записи скачать торрент [SERIAL] Событие The Event . Будь первым!

!Обратная связь