..."/> ...">

Скачать через торрент [SERIAL] Тюрьма ОЗ OZ Фильм бесплатно в хорошем качестве torrent

Скачивайте на UnionPeer.org фильмы через торрент без регистрации. Новинки кино в хорошем качестве через торрент. На UnionPeer.org можно скачать через торрент фильмы 2014 и 2015 годов. Самые новые фильмы.

Скачать торрент [SERIAL] Тюрьма ОЗ OZ бесплатно через .torrent фильм мультфильм сериал

Если у вас наблюдаются проблемы со скриншотами, переходом по ссылками, скачиванием торрентов - проблемы в блокировщике рекламы AdBlock. #хорошегоДня!


Статистика раздачи
Размер:  17.94 GB   |    Зарегистрирован:  5 лет 3 месяца   |    .torrent скачан:  62 раза   |   
Раздают:  1  
   
Загрузка...
 
Автор Сообщение

Galfimbul

avatar Galfimbul


Тюрьма ОЗ / OZ

Оригинальное Название: OZ
Год выпуска: 1997-2003
Страна: США
Жанр: Драма
Продолжительность: ~ 55 мин эпизод.
Кол-во Сезонов: 6
Кол-во Серий: 56
Русские субтитры: нет

Режиссер: Том Фонтана
В ролях: Эрни Хадсон, Гарольд Перинью мл., Ли Таргесен, Дж.К. Саймонс, Терри Киннели и др.

Описание: Государственное пенитенциарное учреждение строгого режима "Освальд" среди тамошних арестантов называется коротко и звучно - "ОЗ". И в этом сокращении налицо жесточайшая ирония, ибо ОЗ - это, как известно, ещё и волшебная страна, в которой находится Изумрудный город.
В тюрьме ОЗ есть экспериментальный блок. Здесь содержатся отъявленные преступники.
Итальянец-мафиози, пристреливший на улице конкурента по розничной торговле героином. Людоед, убивший и сожравший собственную мать. Латинос, забивший бейсбольной битой не понравившегося ему водителя. Негр, застреливший полицейского.
В таком окружении оказывается Тобиас Бичер - адвокат, в состоянии алкогольного опьянения задавивший девочку...

Качество: DVDRip
Формат: MP4
Видео кодек: H.264
Аудио кодек: AAC
Видео: AVC 368x272 23.98fps 672 Kbps
Аудио: AAC LC 44100Hz stereo 128kbps

1 Сезон
Episode 1: The Routine
Episode 2: Visits, Conjugal and Otherwise
Episode 3: God's Chillin'
Episode 4: Capital P
Episode 5: Straight Life
Episode 6: To Your Health
Episode 7: Plan B
Episode 8: A Game of Checkers
General
Complete name : F:\sider\OZ\OZ 1 mp4\oz.s01e01.dvdrip.rus.lostfilm.mp4
Format : MPEG-4
Format profile : Base Media
Codec ID : isom
File size : 322 MiB
Duration : 55mn 56s
Overall bit rate : 804 Kbps
Encoded date : UTC 2010-04-02 13:14:19
Tagged date : UTC 2010-04-02 13:14:19

Video
ID : 1
Format : AVC
Format/Info : Advanced Video Codec
Format profile : <a href="mailto:Main@L3.0" class="postLink">Main@L3.0</a>
Format settings, CABAC : Yes
Format settings, ReFrames : 3 frames
Codec ID : avc1
Codec ID/Info : Advanced Video Coding
Duration : 55mn 56s
Bit rate mode : Variable
Bit rate : 672 Kbps
Maximum bit rate : 4 553 Kbps
Width : 368 pixels
Height : 272 pixels
Display aspect ratio : 4:3
Original display aspect ratio : 4:3
Frame rate mode : Constant
Frame rate : 23.976 fps
Resolution : 8 bits
Colorimetry : 4:2:0
Scan type : Progressive
Bits/(Pixel*Frame) : 0.280
Stream size : 269 MiB (84%)
Writing library : x264 core 56 svn-667M
Encoding settings : cabac=1 / ref=2 / deblock=1:0:0 / analyse=0x1:0x131 / me=umh / subme=6 / brdo=1 / mixed_ref=1 / me_range=16 / chroma_me=1 / trellis=1 / 8x8dct=0 / cqm=0 / deadzone=21,11 / chroma_qp_offset=0 / threads=2 / nr=0 / decimate=1 / mbaff=0 / bframes=3 / b_pyramid=0 / b_adapt=1 / b_bias=0 / direct=3 / wpredb=1 / bime=1 / keyint=250 / keyint_min=25 / scenecut=40(pre) / rc=2pass / bitrate=672 / ratetol=1.0 / rceq='blurCplx^(1-qComp)' / qcomp=0.60 / qpmin=10 / qpmax=51 / qpstep=4 / cplxblur=20.0 / qblur=0.5 / ip_ratio=1.40 / pb_ratio=1.30
Encoded date : UTC 2010-04-02 13:14:19
Tagged date : UTC 2010-04-02 13:14:56

Audio
ID : 2
Format : AAC
Format/Info : Advanced Audio Codec
Format version : Version 4
Format profile : LC
Format settings, SBR : No
Codec ID : 40
Duration : 55mn 56s
Bit rate mode : Variable
Bit rate : 129 Kbps
Maximum bit rate : 159 Kbps
Channel(s) : 2 channels
Channel positions : Front: L R
Sampling rate : 44.1 KHz
Stream size : 51.6 MiB (16%)
Encoded date : UTC 2010-04-02 13:14:48
Tagged date : UTC 2010-04-02 13:14:56
2 Сезон
Episode 1: The Tip
Episode 2: Ancient Tribes
Episode 3: Great Men
Episode 4: Losing Your Appeal
Episode 5: Family Bizness
Episode 6: Strange Bedfellows
Episode 7: Animal Farm
Episode 8: Escape from Oz
General
Complete name : F:\sider\OZ\OZ 2 mp4\oz.s02e01.dvdrip.rus.lostfilm.mp4
Format : MPEG-4
Format profile : Base Media
Codec ID : isom
File size : 322 MiB
Duration : 55mn 59s
Overall bit rate : 805 Kbps
Encoded date : UTC 2010-04-02 21:10:41
Tagged date : UTC 2010-04-02 21:10:41

Video
ID : 1
Format : AVC
Format/Info : Advanced Video Codec
Format profile : <a href="mailto:Main@L3.0" class="postLink">Main@L3.0</a>
Format settings, CABAC : Yes
Format settings, ReFrames : 3 frames
Codec ID : avc1
Codec ID/Info : Advanced Video Coding
Duration : 55mn 59s
Bit rate mode : Variable
Bit rate : 672 Kbps
Maximum bit rate : 4 883 Kbps
Width : 368 pixels
Height : 272 pixels
Display aspect ratio : 4:3
Original display aspect ratio : 4:3
Frame rate mode : Constant
Frame rate : 29.970 fps
Resolution : 8 bits
Colorimetry : 4:2:0
Scan type : Progressive
Bits/(Pixel*Frame) : 0.224
Stream size : 269 MiB (84%)
Writing library : x264 core 56 svn-667M
Encoding settings : cabac=1 / ref=2 / deblock=1:0:0 / analyse=0x1:0x131 / me=umh / subme=6 / brdo=1 / mixed_ref=1 / me_range=16 / chroma_me=1 / trellis=1 / 8x8dct=0 / cqm=0 / deadzone=21,11 / chroma_qp_offset=0 / threads=2 / nr=0 / decimate=1 / mbaff=0 / bframes=3 / b_pyramid=0 / b_adapt=1 / b_bias=0 / direct=3 / wpredb=1 / bime=1 / keyint=250 / keyint_min=25 / scenecut=40(pre) / rc=2pass / bitrate=672 / ratetol=1.0 / rceq='blurCplx^(1-qComp)' / qcomp=0.60 / qpmin=10 / qpmax=51 / qpstep=4 / cplxblur=20.0 / qblur=0.5 / ip_ratio=1.40 / pb_ratio=1.30
Encoded date : UTC 2010-04-02 21:10:41
Tagged date : UTC 2010-04-02 21:11:22

Audio
ID : 2
Format : AAC
Format/Info : Advanced Audio Codec
Format version : Version 4
Format profile : LC
Format settings, SBR : No
Codec ID : 40
Duration : 55mn 59s
Bit rate mode : Variable
Bit rate : 129 Kbps
Maximum bit rate : 149 Kbps
Channel(s) : 2 channels
Channel positions : Front: L R
Sampling rate : 48.0 KHz
Stream size : 51.7 MiB (16%)
Encoded date : UTC 2010-04-02 21:11:14
Tagged date : UTC 2010-04-02 21:11:22
3 Сезон
Episode 1: The Truth and Nothing But...
Episode 2: Napoleon's Boney Parts
Episode 3: Legs
Episode 4: Unnatural Disasters
Episode 5: U.S. Male
Episode 6: Cruel and Unusual Punishments
Episode 7: Secret Identities
Episode 8: Out o' Time
General
Complete name : F:\sider\OZ\OZ 3 mp4\Oz.s03.e01.novafilm.mp4
Format : MPEG-4
Format profile : Base Media
Codec ID : isom
File size : 319 MiB
Duration : 55mn 22s
Overall bit rate : 804 Kbps
Encoded date : UTC 2010-04-03 08:50:29
Tagged date : UTC 2010-04-03 08:50:29

Video
ID : 1
Format : AVC
Format/Info : Advanced Video Codec
Format profile : <a href="mailto:Main@L3.0" class="postLink">Main@L3.0</a>
Format settings, CABAC : Yes
Format settings, ReFrames : 3 frames
Codec ID : avc1
Codec ID/Info : Advanced Video Coding
Duration : 55mn 22s
Bit rate mode : Variable
Bit rate : 672 Kbps
Maximum bit rate : 3 649 Kbps
Width : 368 pixels
Height : 272 pixels
Display aspect ratio : 4:3
Original display aspect ratio : 4:3
Frame rate mode : Constant
Frame rate : 23.976 fps
Resolution : 8 bits
Colorimetry : 4:2:0
Scan type : Progressive
Bits/(Pixel*Frame) : 0.280
Stream size : 266 MiB (84%)
Writing library : x264 core 56 svn-667M
Encoding settings : cabac=1 / ref=2 / deblock=1:0:0 / analyse=0x1:0x131 / me=umh / subme=6 / brdo=1 / mixed_ref=1 / me_range=16 / chroma_me=1 / trellis=1 / 8x8dct=0 / cqm=0 / deadzone=21,11 / chroma_qp_offset=0 / threads=2 / nr=0 / decimate=1 / mbaff=0 / bframes=3 / b_pyramid=0 / b_adapt=1 / b_bias=0 / direct=3 / wpredb=1 / bime=1 / keyint=250 / keyint_min=25 / scenecut=40(pre) / rc=2pass / bitrate=672 / ratetol=1.0 / rceq='blurCplx^(1-qComp)' / qcomp=0.60 / qpmin=10 / qpmax=51 / qpstep=4 / cplxblur=20.0 / qblur=0.5 / ip_ratio=1.40 / pb_ratio=1.30
Encoded date : UTC 2010-04-03 08:50:29
Tagged date : UTC 2010-04-03 08:51:20

Audio
ID : 2
Format : AAC
Format/Info : Advanced Audio Codec
Format version : Version 4
Format profile : LC
Format settings, SBR : No
Codec ID : 40
Duration : 55mn 22s
Bit rate mode : Variable
Bit rate : 129 Kbps
Maximum bit rate : 145 Kbps
Channel(s) : 2 channels
Channel positions : Front: L R
Sampling rate : 48.0 KHz
Stream size : 51.0 MiB (16%)
Encoded date : UTC 2010-04-03 08:51:10
Tagged date : UTC 2010-04-03 08:51:20
4 Сезон
Episode 1: A Cock and Balls Story
Episode 2: Obituaries
Episode 3: The Bill of Wrongs
Episode 4: Works of Mercy
Episode 5: Gray Matter
Episode 6: A Word to the Wise
Episode 7: A Town Without Pity
Episode 8: You Bet Your Life
Episode 9: Medium Rare
Episode 10: Conversions
Episode 11: Revenge Is Sweet
Episode 12: Cuts Like a Knife
Episode 13: Blizzard of '01
Episode 14: Orpheus Descending
Episode 15: Even the Score
Episode 16: Famous Last Words
General
Complete name : F:\sider\OZ\OZ 4 mp4\Oz.s04.e01.novafilm.mp4
Format : MPEG-4
Format profile : Base Media
Codec ID : isom
File size : 320 MiB
Duration : 57mn 21s
Overall bit rate : 781 Kbps
Encoded date : UTC 2010-04-03 16:27:05
Tagged date : UTC 2010-04-03 16:27:05

Video
ID : 1
Format : AVC
Format/Info : Advanced Video Codec
Format profile : <a href="mailto:Main@L3.0" class="postLink">Main@L3.0</a>
Format settings, CABAC : Yes
Format settings, ReFrames : 3 frames
Codec ID : avc1
Codec ID/Info : Advanced Video Coding
Duration : 57mn 20s
Bit rate mode : Variable
Bit rate : 672 Kbps
Maximum bit rate : 2 534 Kbps
Width : 368 pixels
Height : 272 pixels
Display aspect ratio : 4:3
Original display aspect ratio : 4:3
Frame rate mode : Constant
Frame rate : 23.976 fps
Resolution : 8 bits
Colorimetry : 4:2:0
Scan type : Progressive
Bits/(Pixel*Frame) : 0.280
Stream size : 276 MiB (86%)
Writing library : x264 core 56 svn-667M
Encoding settings : cabac=1 / ref=2 / deblock=1:0:0 / analyse=0x1:0x131 / me=umh / subme=6 / brdo=1 / mixed_ref=1 / me_range=16 / chroma_me=1 / trellis=1 / 8x8dct=0 / cqm=0 / deadzone=21,11 / chroma_qp_offset=0 / threads=2 / nr=0 / decimate=1 / mbaff=0 / bframes=3 / b_pyramid=0 / b_adapt=1 / b_bias=0 / direct=3 / wpredb=1 / bime=1 / keyint=250 / keyint_min=25 / scenecut=40(pre) / rc=2pass / bitrate=672 / ratetol=1.0 / rceq='blurCplx^(1-qComp)' / qcomp=0.60 / qpmin=10 / qpmax=51 / qpstep=4 / cplxblur=20.0 / qblur=0.5 / ip_ratio=1.40 / pb_ratio=1.30
Encoded date : UTC 2010-04-03 16:27:05
Tagged date : UTC 2010-04-03 16:27:57

Audio
ID : 2
Format : AAC
Format/Info : Advanced Audio Codec
Format version : Version 4
Format profile : LC
Format settings, SBR : No
Codec ID : 40
Duration : 57mn 21s
Bit rate mode : Variable
Bit rate : 105 Kbps
Maximum bit rate : 126 Kbps
Channel(s) : 2 channels
Channel positions : Front: L R
Sampling rate : 48.0 KHz
Stream size : 43.1 MiB (13%)
Encoded date : UTC 2010-04-03 16:27:50
Tagged date : UTC 2010-04-03 16:27:57
5 Сезон
Episode 1: Visitation
Episode 2: Laws of Gravity
Episode 3: Dream a Little Dream of Me
Episode 4: Next Stop, Valhalla
Episode 5: Wheel of Fortune
Episode 6: Variety
Episode 7: Good Intentions
Episode 8: Impotence
General
Complete name : F:\sider\OZ\OZ 5 mp4\OZ.5x01.dvdrip.rus.[KvadratMalevicha.ru].mp4
Format : MPEG-4
Format profile : Base Media
Codec ID : isom
File size : 320 MiB
Duration : 57mn 22s
Overall bit rate : 781 Kbps
Encoded date : UTC 2010-04-04 16:49:29
Tagged date : UTC 2010-04-04 16:49:29

Video
ID : 1
Format : AVC
Format/Info : Advanced Video Codec
Format profile : <a href="mailto:Main@L3.0" class="postLink">Main@L3.0</a>
Format settings, CABAC : Yes
Format settings, ReFrames : 3 frames
Codec ID : avc1
Codec ID/Info : Advanced Video Coding
Duration : 57mn 22s
Bit rate mode : Variable
Bit rate : 672 Kbps
Maximum bit rate : 2 171 Kbps
Width : 368 pixels
Height : 272 pixels
Display aspect ratio : 4:3
Original display aspect ratio : 4:3
Frame rate mode : Constant
Frame rate : 23.976 fps
Resolution : 8 bits
Colorimetry : 4:2:0
Scan type : Progressive
Bits/(Pixel*Frame) : 0.280
Stream size : 276 MiB (86%)
Writing library : x264 core 56 svn-667M
Encoding settings : cabac=1 / ref=2 / deblock=1:0:0 / analyse=0x1:0x131 / me=umh / subme=6 / brdo=1 / mixed_ref=1 / me_range=16 / chroma_me=1 / trellis=1 / 8x8dct=0 / cqm=0 / deadzone=21,11 / chroma_qp_offset=0 / threads=2 / nr=0 / decimate=1 / mbaff=0 / bframes=3 / b_pyramid=0 / b_adapt=1 / b_bias=0 / direct=3 / wpredb=1 / bime=1 / keyint=250 / keyint_min=25 / scenecut=40(pre) / rc=2pass / bitrate=672 / ratetol=1.0 / rceq='blurCplx^(1-qComp)' / qcomp=0.60 / qpmin=10 / qpmax=51 / qpstep=4 / cplxblur=20.0 / qblur=0.5 / ip_ratio=1.40 / pb_ratio=1.30
Encoded date : UTC 2010-04-04 16:49:29
Tagged date : UTC 2010-04-04 16:49:40

Audio
ID : 2
Format : AAC
Format/Info : Advanced Audio Codec
Format version : Version 4
Format profile : LC
Format settings, SBR : No
Codec ID : 40
Duration : 57mn 22s
Bit rate mode : Variable
Bit rate : 105 Kbps
Maximum bit rate : 133 Kbps
Channel(s) : 2 channels
Channel positions : Front: L R
Sampling rate : 48.0 KHz
Stream size : 43.1 MiB (13%)
Encoded date : UTC 2010-04-04 16:49:36
Tagged date : UTC 2010-04-04 16:49:40
6 Сезон
Episode 1: Dead Man Talking
Episode 2: See No Evil, Hear No Evil, Smell No Evil
Episode 3: Sonata da Oz
Episode 4: A Failure to Communicate
Episode 5: 4giveness
Episode 6: A Day in the Death...
Episode 7: Junkyard Dawgs
Episode 8: Exeunt Omnes
General
Complete name : F:\sider\OZ\OZ 6 mp4\Turma_OZ_VI_1(8)_DVDRip_[torrents.ru].mp4
Format : MPEG-4
Format profile : Base Media
Codec ID : isom
File size : 309 MiB
Duration : 53mn 39s
Overall bit rate : 804 Kbps
Encoded date : UTC 2010-04-04 21:52:07
Tagged date : UTC 2010-04-04 21:52:07

Video
ID : 1
Format : AVC
Format/Info : Advanced Video Codec
Format profile : <a href="mailto:Main@L3.0" class="postLink">Main@L3.0</a>
Format settings, CABAC : Yes
Format settings, ReFrames : 3 frames
Codec ID : avc1
Codec ID/Info : Advanced Video Coding
Duration : 53mn 39s
Bit rate mode : Variable
Bit rate : 672 Kbps
Maximum bit rate : 3 576 Kbps
Width : 368 pixels
Height : 272 pixels
Display aspect ratio : 4:3
Original display aspect ratio : 4:3
Frame rate mode : Constant
Frame rate : 25.000 fps
Resolution : 8 bits
Colorimetry : 4:2:0
Scan type : Progressive
Bits/(Pixel*Frame) : 0.269
Stream size : 258 MiB (84%)
Writing library : x264 core 56 svn-667M
Encoding settings : cabac=1 / ref=2 / deblock=1:0:0 / analyse=0x1:0x131 / me=umh / subme=6 / brdo=1 / mixed_ref=1 / me_range=16 / chroma_me=1 / trellis=1 / 8x8dct=0 / cqm=0 / deadzone=21,11 / chroma_qp_offset=0 / threads=2 / nr=0 / decimate=1 / mbaff=0 / bframes=3 / b_pyramid=0 / b_adapt=1 / b_bias=0 / direct=3 / wpredb=1 / bime=1 / keyint=250 / keyint_min=25 / scenecut=40(pre) / rc=2pass / bitrate=672 / ratetol=1.0 / rceq='blurCplx^(1-qComp)' / qcomp=0.60 / qpmin=10 / qpmax=51 / qpstep=4 / cplxblur=20.0 / qblur=0.5 / ip_ratio=1.40 / pb_ratio=1.30
Encoded date : UTC 2010-04-04 21:52:07
Tagged date : UTC 2010-04-04 21:52:17

Audio
ID : 2
Format : AAC
Format/Info : Advanced Audio Codec
Format version : Version 4
Format profile : LC
Format settings, SBR : No
Codec ID : 40
Duration : 53mn 28s
Bit rate mode : Variable
Bit rate : 129 Kbps
Maximum bit rate : 154 Kbps
Channel(s) : 2 channels
Channel positions : Front: L R
Sampling rate : 48.0 KHz
Stream size : 49.3 MiB (16%)
Encoded date : UTC 2010-04-04 21:52:14
Tagged date : UTC 2010-04-04 21:52:17


Трекер:  [ 29-Июл-2012 22:12 ]

  

Скачать .torrent

Размер .torrent файла 94 KB


Размер: 17.94 GB
Хэш (hash) релиза: 7fdd00e4d0cdd7f01a73b46572dbdb965d5d33c2
Подписка на обновления:

Еще никто не оставлял запись к записи скачать торрент [SERIAL] Тюрьма ОЗ OZ . Будь первым!

!Обратная связь