Скачать через торрент [SERIAL] Черная метка Фильм бесплатно в хорошем качестве torrent

Скачивайте на UnionPeer.org фильмы через торрент без регистрации. Новинки кино в хорошем качестве через торрент. На UnionPeer.org можно скачать через торрент фильмы 2014 и 2015 годов. Самые новые фильмы.

Скачать торрент [SERIAL] Черная метка бесплатно через .torrent фильм мультфильм сериал

Если у вас наблюдаются проблемы со скриншотами, переходом по ссылками, скачиванием торрентов - проблемы в блокировщике рекламы AdBlock. #хорошегоДня!


Статистика раздачи
Размер:  4.19 GB   |    Зарегистрирован:  5 лет 3 месяца   |    .torrent скачан:  38 раз   |   
Раздают:  1  
   
Загрузка...
 
Автор Сообщение

Galfimbul

avatar Galfimbul


Черная метка / Срочное уведомление
Оригинальное Название::Burn Notice
Год выпуска: 2010.
Страна: США
Жанр: комедия, драма
Сезон: 4 сезон
Кол-во Серий: 18
Перевод: Любительский (многоголосый, закадровый) FilmGate.
Продолжительность: 18 серий по 44мин.
Режиссёр: Пол Холахан, Джон Т. Кречмер, Джереми С. Чечек
В ролях:: Джеффри Донован (Майкл Вестен), Габриел Ануар (Фиона Гленан), Брюс Кэмпбелл (Сэм Экс), Шерон Глесс (Мадлин Вестен), Тришиа Хелфер (Карла)
Описание: «Меня зовут Майкл Вестен. Я – шпион. Я не работаю ни на одну из международных спецслужб. Мною движет лишь желание заниматься любимым делом и деньги, которые это дело приносит…» «Секретная операция в Нигерии была сорвана – меня кто-то подставил…» «Я чудом остаюсь в живых… Но теряю сознание в самолете» «Я очнулся непонятно где и обнаружил рядом свою бывшую девушку, Фиону…» «Как я оказался в Майами, городе моего детства?…» «Связные из различных спецслужб отказываются иметь со мной дело, а личные банковские счета заморожены по приказу какого-то чиновника…» «За мной постоянно следят люди из ФБР…» «Всё, что я знаю – кто-то хочет, чтобы я жил в Майами, без права выезда. В противном случае, на ноги будут подняты все силы полиции, ФБР, ЦРУ, и из такой переделки мне уже не выйти живым…» «Я хочу понять – кто меня подставил… Но для этого нужны деньги и время…» «Поэтому я буду и частным детективом, и тайным шпионом для тех, кто может себе это позволить»
Качество: WEB-DLRip
Формат: MP4
Видео кодек: H.264
Аудио кодек: AAC
Видео: MPEG4 Video (H264) 480x272 23.98fps [640 Kbps]
Аудио: AAC 48000Hz stereo [129 Kbps]
<li style="list-style: none">
Friends and Enemies
Fast Friends
Made Man
Breach of Faith
Neighborhood Watch
Entry Point
Past & Future Tense
Where There's Smoke
Center of the Storm
Hard Time
Blind Spot
Guilty As Charged
Eyes Open
Hot Property
Brotherly Love
Dead or Alive
Out of the Fire
Last Stand
</ul>
Format : MPEG-4
Format profile : Base Media
Codec ID : isom
File size : 242 MiB
Duration : 43mn 52s
Overall bit rate : 772 Kbps
Encoded date : UTC 2010-09-08 16:35:26
Tagged date : UTC 2010-09-08 16:35:26

Video
ID : 1
Format : AVC
Format/Info : Advanced Video Codec
Format profile : <a href="mailto:Main@L3.0" class="postLink">Main@L3.0</a>
Format settings, CABAC : Yes
Format settings, ReFrames : 3 frames
Codec ID : avc1
Codec ID/Info : Advanced Video Coding
Duration : 43mn 52s
Bit rate mode : Variable
Bit rate : 640 Kbps
Maximum bit rate : 2 579 Kbps
Width : 480 pixels
Height : 272 pixels
Display aspect ratio : 16:9
Frame rate mode : Constant
Frame rate : 23.976 fps
Color space : YUV
Chroma subsampling : 4:2:0
Bit depth : 8 bits
Scan type : Progressive
Bits/(Pixel*Frame) : 0.204
Stream size : 201 MiB (83%)
Writing library : x264 core 56 svn-667M
Encoding settings : cabac=1 / ref=2 / deblock=1:0:0 / analyse=0x1:0x131 / me=umh / subme=6 / brdo=1 / mixed_ref=1 / me_range=16 / chroma_me=1 / trellis=1 / 8x8dct=0 / cqm=0 / deadzone=21,11 / chroma_qp_offset=0 / threads=2 / nr=0 / decimate=1 / mbaff=0 / bframes=3 / b_pyramid=0 / b_adapt=1 / b_bias=0 / direct=3 / wpredb=1 / bime=1 / keyint=250 / keyint_min=25 / scenecut=40(pre) / rc=2pass / bitrate=640 / ratetol=1.0 / rceq='blurCplx^(1-qComp)' / qcomp=0.60 / qpmin=10 / qpmax=51 / qpstep=4 / cplxblur=20.0 / qblur=0.5 / ip_ratio=1.40 / pb_ratio=1.30
Encoded date : UTC 2010-09-08 16:35:26
Tagged date : UTC 2010-09-08 16:35:41

Audio
ID : 2
Format : AAC
Format/Info : Advanced Audio Codec
Format version : Version 4
Format profile : LC
Format settings, SBR : No
Codec ID : 40
Duration : 43mn 52s
Bit rate mode : Variable
Bit rate : 129 Kbps
Maximum bit rate : 144 Kbps
Channel(s) : 2 channels
Channel positions : Front: L R
Sampling rate : 48.0 KHz
Stream size : 40.5 MiB (17%)
Encoded date : UTC 2010-09-08 16:35:37
Tagged date : UTC 2010-09-08 16:35:41



Трекер:  [ 29-Июл-2012 22:11 ]

  

Скачать .torrent

Размер .torrent файла 8 KB


Размер: 4.19 GB
Хэш (hash) релиза: ab0bff10b7e9b6bad2c7e47bfbf8470e49f4008a
Подписка на обновления:

Еще никто не оставлял запись к записи скачать торрент [SERIAL] Черная метка . Будь первым!

!Обратная связь