Скачать через торрент [SERIAL4PSP] Врата The Gates Фильм бесплатно в хорошем качестве torrent

Скачивайте на UnionPeer.org фильмы через торрент без регистрации. Новинки кино в хорошем качестве через торрент. На UnionPeer.org можно скачать через торрент фильмы 2014 и 2015 годов. Самые новые фильмы.

Скачать торрент [SERIAL4PSP] Врата The Gates бесплатно через .torrent фильм мультфильм сериал

Если у вас наблюдаются проблемы со скриншотами, переходом по ссылками, скачиванием торрентов - проблемы в блокировщике рекламы AdBlock. #хорошегоДня!


Статистика раздачи
Размер:  2.86 GB   |    Зарегистрирован:  5 лет 2 месяца   |    .torrent скачан:  43 раза   |   
Раздают:  1  
   
Загрузка...
 
Автор Сообщение

Galfimbul

avatar Galfimbul



Врата
Оригинальное Название: The Gates
Год выхода: 2010 г.
Страна: США
Жанр: триллер, драма, криминал, детектив
Номер Сезона: 1 Сезон
Кол-во Серий: 13 Серий (из 13)
Статус сериала: закрыт
Продолжительность: ~ 45 мин эпизод
Перевод : двухголосый (закадровый) © filmgate.tv
Перевод: consuello, chin-chin Озвучивание: Kvest1, HELL Работа с эффектами и звуком: Rysanych
Режиссер: Дэвид Баррет, Фред Гербер, Терри МакДонаф
Сценарий: Грант Шарбо, Ричард Хэйтем, Гэбриэлль Дж. Стэнтон
Продюссер: Роберт Хьюит Вульф, Гэбриэлль Дж. Стэнтон, Иддо Лэмптон Энокс мл.
В ролях: Рона Митра, Фрэнк Грилло, Марисоль Николс, Люк Мэбли, Трэвис Колдуэлл, Скайлер Сэмюэлс
Описание:
Главный герой — полицейский из мегаполиса, который становится начальником полиции в небольшом охраняемом пригороде, на первый взгляд кажущемся сонным местечком. Но позже выясняется, что жители пригорода — вовсе не такие, какими кажутся.

Season 1, Episode 1: Pilot
Season 1, Episode 2: What Lies Beneath
Season 1, Episode 3: Breach
Season 1, Episode 4: The Monster Within
Season 1, Episode 5: Repercussions
Season 1, Episode 6: Jurisdiction
Season 1, Episode 7: Digging the Dirt
Season 1, Episode 8: Dog Eat Dog
Season 1, Episode 9: Identity Crisis
Season 1, Episode 10: Little Girl Lost
Season 1, Episode 11: Surfacing
Season 1, Episode 12: Bad Moon Rising
Season 1, Episode 13: Moving Day

Источник: WEB-DL, HD, 720p
Качество: WEB-DLRip
Формат: MP4 PSP AVC
Кодек видео: H.264
Кодек аудио: AAC
Видео: 480x272 (16:9), 23.976 fps, AVC, H.264, ~ 608 kbps avg, 0.194 bit/pixel
Аудио: Russian 48 kHz, AAC-LC, 2/0 (L,R) ch, ABR, ~128 kbps

General
Complete name : J:\Ripped_PSP\Врата (The Gates, 2010, 1 season)\The.Gates.s01e01.web-dl.rus.mp4
Format : MPEG-4
Format profile : Base Media
Codec ID : isom
File size : 227 MiB
Duration : 43mn 17s
Overall bit rate : 733 Kbps
Encoded date : UTC 2010-10-19 06:56:28
Tagged date : UTC 2010-10-19 06:56:28

Video
ID : 1
Format : AVC
Format/Info : Advanced Video Codec
Format profile : <a href="mailto:Main@L3.0" class="postLink">Main@L3.0</a>
Format settings, CABAC : Yes
Format settings, ReFrames : 2 frames
Codec ID : avc1
Codec ID/Info : Advanced Video Coding
Duration : 43mn 17s
Bit rate mode : Variable
Bit rate : 608 Kbps
Maximum bit rate : 2 646 Kbps
Width : 480 pixels
Height : 272 pixels
Display aspect ratio : 16:9
Frame rate mode : Constant
Frame rate : 23.976 fps
Color space : YUV
Chroma subsampling : 4:2:0
Bit depth : 8 bits
Scan type : Progressive
Bits/(Pixel*Frame) : 0.194
Stream size : 186 MiB (82%)
Writing library : x264 core 86 r1442M 781d300
Encoding settings : cabac=1 / ref=2 / deblock=1:0:0 / analyse=0x1:0x131 / me=hex / subme=7 / psy=1 / psy_rd=1.00:0.00 / mixed_ref=1 / me_range=16 / chroma_me=1 / trellis=1 / 8x8dct=0 / cqm=0 / deadzone=21,11 / fast_pskip=1 / chroma_qp_offset=-2 / threads=2 / sliced_threads=0 / nr=0 / decimate=1 / interlaced=0 / constrained_intra=0 / bframes=3 / b_pyramid=0 / b_adapt=2 / b_bias=0 / direct=3 / wpredb=1 / wpredp=2 / keyint=230 / keyint_min=23 / scenecut=40 / intra_refresh=0 / rc_lookahead=40 / rc=cbr / mbtree=1 / bitrate=608 / ratetol=0.2 / qcomp=0.60 / qpmin=10 / qpmax=51 / qpstep=4 / vbv_maxrate=2000 / vbv_bufsize=2000 / ip_ratio=1.41 / aq=1:1.00 / pulldown=0 / nal_hrd=none
Language : English
Tagged date : UTC 2010-10-19 06:56:39

Audio
ID : 2
Format : AAC
Format/Info : Advanced Audio Codec
Format version : Version 4
Format profile : LC
Format settings, SBR : No
Codec ID : 40
Duration : 43mn 17s
Bit rate mode : Variable
Bit rate : 129 Kbps
Maximum bit rate : 148 Kbps
Channel(s) : 2 channels
Channel positions : Front: L R
Sampling rate : 48.0 KHz
Stream size : 39.9 MiB (18%)
Encoded date : UTC 2010-10-19 06:56:38
Tagged date : UTC 2010-10-19 06:56:39


Трекер:  [ 29-Июл-2012 21:52 ]

  

Скачать .torrent

Размер .torrent файла 15 KB


Размер: 2.86 GB
Хэш (hash) релиза: 6f50a974d93a29cba2d21cb1f9b96837cfb20137
Подписка на обновления:

Еще никто не оставлял запись к записи скачать торрент [SERIAL4PSP] Врата The Gates . Будь первым!

!Обратная связь