Скачать через торрент [SERIAL4PSP] Говорящая с призраками Ghost Whisperer Фильм бесплатно в хорошем качестве torrent

Скачивайте на UnionPeer.org фильмы через торрент без регистрации. Новинки кино в хорошем качестве через торрент. На UnionPeer.org можно скачать через торрент фильмы 2014 и 2015 годов. Самые новые фильмы.

Скачать торрент [SERIAL4PSP] Говорящая с призраками Ghost Whisperer бесплатно через .torrent фильм мультфильм сериал

Если у вас наблюдаются проблемы со скриншотами, переходом по ссылками, скачиванием торрентов - проблемы в блокировщике рекламы AdBlock. #хорошегоДня!


Статистика раздачи
Размер:  4.11 GB   |    Зарегистрирован:  5 лет 2 месяца   |    .torrent скачан:  41 раз   |   
Раздают:  1  
   
Загрузка...
 
Автор Сообщение

Galfimbul

avatar Galfimbul



Говорящая с призраками
«The dead are talking...and she is listening.»
Оригинальное название: Ghost Whisperer
Год выпуска: 2007-2008
Страна: США
Студия: ''ABC Studios / CBS Television Studios / Touchstone Television''
Номер сезона: 3 сезон (18 эпизодов)
Статус сериала: завершен 5 сезон
Жанр: мистика, драма
Продолжительность: ~ 44 мин эпизод
Перевод : профессиональный, многоголосый, закадровый (канал )
Режиссер: Джон Грэй, Эрик Ланювиль, Джеймс Фроули
Автор идеи: Джон Грэй, Джой Блейк, Мелисса Блейк
Продюссер: Ким Моусес, Лори МакКарти, П.К. Симондз
В ролях: Дженнифер Лав Хьюитт, Дэвид Конрад, Камрин Менхейм, Кристоф Сандерс, Джейми Кеннеди, Джей Мор
Описание:
Мелинда Гордон только что вышла замуж и открыла собственный антикварный магазин. С виду она такая же, как большинство девушек. Но на самом деле Мелинда обладает редчайшей способностью общаться с духами умерших людей. Девушка использует этот дар, чтобы передавать важную информацию из мира мертвых в мир живых…

Season 3, Episode 1: The Underneath / Под землёй
Season 3, Episode 2: Don't Try This At Home / Не делай такого дома
Season 3, Episode 3: Haunted Hero / Охота на героя
Season 3, Episode 4: No Safe Place / Нет спасенья
Season 3, Episode 5: Weight Of What Was / Груз того, что было
Season 3, Episode 6: Double Exposure / Дважды брошенный
Season 3, Episode 7: Unhappy Medium / Несчастный медиум
Season 3, Episode 8: Bad Blood / Дурная кровь
Season 3, Episode 9: All Ghosts Lead To Grandview / Все призраки Грендвью
Season 3, Episode 10: Holiday Spirit / Дух праздника
Season 3, Episode 11: Slam (a.k.a Slambook) / Книга сплетен
Season 3, Episode 12: First Do No Harm / Не навреди
Season 3, Episode 13: Home But Not Alone / Не один дома
Season 3, Episode 14: The Grave Sitter / Ожидающая у гроба
Season 3, Episode 15: Horror Show / Снимая ужасы
Season 3, Episode 16: Deadbeat Dads / Пропащие отцы
Season 3, Episode 17: Stranglehold / Мёртвая хватка
Season 3, Episode 18: Pater Familias / Глава семьи
Тех. информация:
Источник: DVDRip
Качество: DVDRip
Формат: MP4 PSP AVC
Кодек видео: H.264
Кодек аудио: AAC
Видео: 480x272 (16:9), 23.976 fps, AVC, H.264, ~ 608 kbps avg, 0.194 bit/pixel
Аудио: Russian 48 kHz, AAC-LC, 2/0 (L,R) ch, ABR, ~128 kbps

General
Complete name : E:\Ripped_PSP\Говорящая с призраками (Ghost Whisperer, 3 season)\ghost_whisperer.s03e01.dvdrip.rus.mp4
Format : MPEG-4
Format profile : Base Media
Codec ID : isom
File size : 236 MiB
Duration : 44mn 34s
Overall bit rate : 739 Kbps
Encoded date : UTC 2011-01-13 14:49:17
Tagged date : UTC 2011-01-13 14:49:17

Video
ID : 1
Format : AVC
Format/Info : Advanced Video Codec
Format profile : <a href="mailto:Main@L3.0" class="postLink">Main@L3.0</a>
Format settings, CABAC : Yes
Format settings, ReFrames : 3 frames
Codec ID : avc1
Codec ID/Info : Advanced Video Coding
Duration : 44mn 34s
Bit rate mode : Variable
Bit rate : 608 Kbps
Maximum bit rate : 2 772 Kbps
Width : 480 pixels
Height : 272 pixels
Display aspect ratio : 16:9
Frame rate mode : Constant
Frame rate : 23.976 fps
Color space : YUV
Chroma subsampling : 4:2:0
Bit depth : 8 bits
Scan type : Progressive
Bits/(Pixel*Frame) : 0.194
Stream size : 194 MiB (82%)
Title : Imported with GPAC 0.4.6-DEV (internal rev. 7)
Writing library : x264 core 108 r1790 8eaf8a6
Encoding settings : cabac=1 / ref=3 / deblock=1:-1:0 / analyse=0x1:0x131 / me=umh / subme=7 / psy=1 / psy_rd=1.00:0.20 / mixed_ref=1 / me_range=16 / chroma_me=1 / trellis=2 / 8x8dct=0 / cqm=0 / deadzone=21,11 / fast_pskip=0 / chroma_qp_offset=-3 / threads=3 / sliced_threads=0 / nr=0 / decimate=0 / interlaced=0 / constrained_intra=0 / bframes=3 / b_pyramid=0 / b_adapt=2 / b_bias=0 / direct=3 / weightb=1 / open_gop=0 / weightp=2 / keyint=250 / keyint_min=23 / scenecut=40 / intra_refresh=0 / rc_lookahead=60 / rc=2pass / mbtree=1 / bitrate=608 / ratetol=1.0 / qcomp=0.60 / qpmin=10 / qpmax=51 / qpstep=4 / cplxblur=20.0 / qblur=0.5 / ip_ratio=1.40 / aq=1:1.00
Encoded date : UTC 2011-01-13 14:49:17
Tagged date : UTC 2011-01-13 14:49:32

Audio
ID : 2
Format : AAC
Format/Info : Advanced Audio Codec
Format version : Version 4
Format profile : LC
Format settings, SBR : No
Codec ID : 40
Duration : 44mn 34s
Bit rate mode : Variable
Bit rate : 128 Kbps
Maximum bit rate : 137 Kbps
Channel(s) : 2 channels
Channel positions : Front: L R
Sampling rate : 48.0 KHz
Compression mode : Lossy
Stream size : 40.7 MiB (17%)
Encoded date : UTC 2011-01-13 14:49:31
Tagged date : UTC 2011-01-13 14:49:32


Трекер:  [ 29-Июл-2012 21:51 ]

  

Скачать .torrent

Размер .torrent файла 22 KB


Размер: 4.11 GB
Хэш (hash) релиза: f24880717f34d1511fd6c6640cf8ca3d63ee72fd
Подписка на обновления:

Еще никто не оставлял запись к записи скачать торрент [SERIAL4PSP] Говорящая с призраками Ghost Whisperer . Будь первым!

!Обратная связь