Скачать через торрент [SERIAL4PSP] Черная ГадюкаThe Black Adder Фильм бесплатно в хорошем качестве torrent

Скачивайте на UnionPeer.org фильмы через торрент без регистрации. Новинки кино в хорошем качестве через торрент. На UnionPeer.org можно скачать через торрент фильмы 2014 и 2015 годов. Самые новые фильмы.

Скачать торрент [SERIAL4PSP] Черная ГадюкаThe Black Adder бесплатно через .torrent фильм мультфильм сериал

Если у вас наблюдаются проблемы со скриншотами, переходом по ссылками, скачиванием торрентов - проблемы в блокировщике рекламы AdBlock. #хорошегоДня!


Статистика раздачи
Размер:  1.01 GB   |    Зарегистрирован:  5 лет   |    .torrent скачан:  35 раз   |   
Раздают:  1  
   
Загрузка...
 
Автор Сообщение

Galfimbul

avatar Galfimbul



Черная Гадюка
Оригинальное название: The Black Adder
Год выпуска: 1983
Страна: Великобритания
Жанр: комедия, исторический фильм
Количество сезонов: 1 из 4
Количество серий: 6
Перевод: Профессиональный (двуголосый) (Артмедиа-групп)
Режисcёр:

Ричард Кёртис,
Роуэн Аткинсон

В ролях:

Роуэн Аткинсон,
Тим МакИннерни,
Тони Робинсон,
Брайан Блессед,
Элспрет Грей
Описание:Отпетый негодяй и сквалыга, Блэкедер странствует по британской истории, по возможности вредя соотечественникам и стараясь оказаться в самом неподходящем месте в самое неподходящее время. В этом ему помогает верный подручный сэр Болдрик.
С опозданием присоединившись к знаменитой битве при Босворте, Эдмунд убивает короля Ричарда III,
укравшего его коня и становится принцем.
Черная Гадюка вдруг решает, что его брат на троне – фигура нелегитимная.
С помощью приезжего шотландца и интимных писем он пытается захватить престол.
После того, как разгневанный король расправился с Епископом Кентерберийским, ничего не оставалось,
как предложить эту вакансию Черной Гадюке. Во всей Англии нет более подходящей кандидатуры!
Король решает женить Черную Гадюку на испанской принцессе. Эдмунд находит ее не очень
привлекательной, но король сделает все, чтобы не допустить обострения отношений с Испанией.
Несомненно, Перси и Болдрик будут сожжены у столба вместе с проклятым Эдмундом. Ведь все уже
поняли, что Черная Гадюка – это самая настоящая ведьма. Пусть и в мужской одежде…
Когда король повелевает лишить Черную Гадюку герцогского титула, разобиженный Эдмунд собирает
компанию из шести главных головорезов Британии. Его цель – не просто отомстить, но завладеть короной!

1. Предыстория / The Foretelling
2. Рожденный стать королем / Born to be King
3. Архиепископ / Archbishop
4. Прекрасная королева Испании / The Queen of Spain’s Beard
5. Охотник на ведьм / Witchsmeller Pursuivant
6. Черная печать / The Black Seal
General
Complete name : H:\The Black Adder\1 The Black Adder\01 The Foretelling.mp4
Format : MPEG-4
Format profile : Base Media
Codec ID : isom
File size : 177 MiB
Duration : 33mn 31s
Overall bit rate : 740 Kbps
Encoded date : UTC 2011-03-10 20:10:04
Tagged date : UTC 2011-03-10 20:10:04

Video
ID : 1
Format : AVC
Format/Info : Advanced Video Codec
Format profile : <a href="mailto:Main@L3.0" class="postLink">Main@L3.0</a>
Format settings, CABAC : Yes
Format settings, ReFrames : 2 frames
Codec ID : avc1
Codec ID/Info : Advanced Video Coding
Duration : 33mn 31s
Bit rate mode : Variable
Bit rate : 608 Kbps
Maximum bit rate : 2 034 Kbps
Width : 368 pixels
Height : 272 pixels
Display aspect ratio : 4:3
Frame rate mode : Constant
Frame rate : 25.000 fps
Resolution : 24 bits
Colorimetry : 4:2:0
Scan type : Progressive
Bits/(Pixel*Frame) : 0.243
Stream size : 146 MiB (82%)
Writing library : x264 core 65 r999kMod cc51047
Encoding settings : cabac=1 / ref=2 / deblock=1:0:0 / analyse=0x1:0x131 / me=umh / subme=6 / psy_rd=1.0:0.0 / mixed_ref=1 / me_range=16 / chroma_me=1 / trellis=1 / 8x8dct=0 / cqm=0 / deadzone=21,11 / chroma_qp_offset=-2 / threads=4 / thread_queue=4 / nr=0 / decimate=1 / mbaff=0 / bframes=3 / b_pyramid=0 / b_adapt=1 / b_bias=0 / direct=3 / wpredb=1 / keyint=250 / keyint_min=25 / scenecut=40(pre) / rc=2pass / bitrate=608 / ratetol=1.0 / qcomp=0.60 / qpmin=10 / qpmax=51 / qpstep=4 / cplxblur=20.0 / qblur=0.5 / ip_ratio=1.40 / pb_ratio=1.30 / aq=1:1.00
Encoded date : UTC 2011-03-10 20:10:04
Tagged date : UTC 2011-03-10 20:10:12

Audio
ID : 2
Format : AAC
Format/Info : Advanced Audio Codec
Format version : Version 4
Format profile : LC
Format settings, SBR : No
Codec ID : 40
Duration : 33mn 31s
Bit rate mode : Variable
Bit rate : 128 Kbps
Maximum bit rate : 139 Kbps
Channel(s) : 2 channels
Channel positions : L R
Sampling rate : 48.0 KHz
Resolution : 16 bits
Stream size : 30.8 MiB (17%)
Encoded date : UTC 2011-03-10 20:10:11
Tagged date : UTC 2011-03-10 20:10:12

Качество: DVDRip
Формат: MP4
Видео кодек: H.264
Аудио кодек: AAC
Видео: MPEG4 Video (H264) 368x272 25,000fps 608Kbps
Аудио: AAC 48000Hz stereo 128Kbps


Трекер:  [ 29-Июл-2012 21:50 ]

  

Скачать .torrent

Размер .torrent файла 11 KB


Размер: 1.01 GB
Хэш (hash) релиза: 9557bc897bd489d8029198f388d4eb6ddc5f4ed8
Подписка на обновления:

Торренты, похожие на [SERIAL4PSP] Черная ГадюкаThe Black Adder скачать торрент

Форум Название Автор Размер S L Добавлен
Видео для Консолей ·· [SERIAL4PSP] Черная Гадюка II/The Black Adder II [Ричард Кёртис, Роуэн Аткинсон][2 сезон][6 из 6][1986, комедия, исторический фильм, DVDRip][Артмедиа-групп] Galfimbul 973709670929 MB 0 0 1343641560

12:46

30-Июл-12

Еще никто не оставлял запись к записи скачать торрент [SERIAL4PSP] Черная ГадюкаThe Black Adder . Будь первым!

!Обратная связь