Скачать через торрент [SERIAL] Семнадцать мгновений весны Фильм бесплатно в хорошем качестве torrent

Скачивайте на UnionPeer.org фильмы через торрент без регистрации. Новинки кино в хорошем качестве через торрент. На UnionPeer.org можно скачать через торрент фильмы 2014 и 2015 годов. Самые новые фильмы.

Скачать торрент [SERIAL] Семнадцать мгновений весны бесплатно через .torrent фильм мультфильм сериал

Если у вас наблюдаются проблемы со скриншотами, переходом по ссылками, скачиванием торрентов - проблемы в блокировщике рекламы AdBlock. #хорошегоДня!


Статистика раздачи
Размер:  4.03 GB   |    Зарегистрирован:  5 лет 2 месяца   |    .torrent скачан:  74 раза   |   
Раздают:  1  
   
Загрузка...
 
Автор Сообщение

Galfimbul

avatar Galfimbul


«Семнадцать мгновений весны»
(полная черно-белая версия, реставрация «Крупный План»)

Оригинальное название: Семнадцать мгновений весны
Год выпуска: 1973 г.
Страна: СССР
Жанр: военная драма
Продолжительность: ~14 часов
Перевод: Не требуется
Режиссер: Татьяна Лиознова
В ролях: Вячеслав Тихонов, Леонид Броневой, Евгений Евстигнеев, Олег Табаков, Ростислав Плятт, Екатерина Градова, Ольга Сошникова, Отто Мелиес, Николай Прокопович, Николай Гриценко, Юрий Визбор, Вячеслав Шалевич, Леонид Куравлев, Валентин Гафт, Василий Лановой, Лев Дуров, Юрий Катин-Ярцев.

Описание:
Действие разворачивается в феврале-марте 1945 года, незадолго до капитуляции Германии во Второй мировой войне. Герой фильма, штандартенфюрер Макс Отто фон Штирлиц, советский разведчик, работающий в центральном аппарате СД, получает задание выяснить, кто из высших руководителей Рейха ведёт сепаратные переговоры с Западом.

Слишком серьёзный по меркам нынешнего зрителя, сериал прослыл легендарным у своего поколения; сейчас уже и не верится, что трансляция какого-либо произведения в эфир могла буквально сгонять целые города к телевизорам, опустошая улицы. Неторопливое повествование, изумительные голоса, исторические роли и актёры рассказывают — художественно, но всерьёз — о времени, в котором каждый мог внезапно остаться сам за себя.

Качество видео: DVDRip
Формат: MP4
Видео кодек: H.264
Аудио кодек: AAC
Видео: x264, 368x272, 25fps, ~570kbps (CRF 17.3)
Аудио: aac-lc, 111kbps, 1ch, 48kHz
General
Complete name : C:\torrents\!others\vospi\17-mgn-vsn-PSP-mp4\17.mgvsn.05.mp4
Format : MPEG-4
Format profile : Sony PSP
Codec ID : MSNV
File size : 322 MiB
Duration : 1h 5mn
Overall bit rate mode : Variable
Overall bit rate : 687 Kbps
Encoded date : UTC 2012-01-15 15:20:42
Tagged date : UTC 2012-01-15 15:20:42

Video
ID : 1
Format : AVC
Format/Info : Advanced Video Codec
Format profile : <a href="mailto:Main@L3.0" class="postLink">Main@L3.0</a>
Format settings, CABAC : Yes
Format settings, ReFrames : 3 frames
Codec ID : avc1
Codec ID/Info : Advanced Video Coding
Duration : 1h 5mn
Bit rate : 573 Kbps
Maximum bit rate : 2 800 Kbps
Width : 368 pixels
Height : 272 pixels
Display aspect ratio : 4:3
Frame rate mode : Constant
Frame rate : 25.000 fps
Color space : YUV
Chroma subsampling : 4:2:0
Bit depth : 8 bits
Scan type : Progressive
Bits/(Pixel*Frame) : 0.229
Stream size : 269 MiB (83%)
Writing library : x264 core 116 r2074 2641b9e
Encoding settings : cabac=1 / ref=3 / deblock=1:0:0 / analyse=0x1:0x111 / me=umh / subme=9 / psy=1 / psy_rd=1.00:0.00 / mixed_ref=1 / me_range=16 / chroma_me=1 / trellis=2 / 8x8dct=0 / cqm=0 / deadzone=21,11 / fast_pskip=0 / chroma_qp_offset=-2 / threads=6 / sliced_threads=0 / nr=0 / decimate=1 / interlaced=0 / bluray_compat=0 / constrained_intra=0 / bframes=16 / b_pyramid=0 / b_adapt=0 / b_bias=0 / direct=3 / weightb=1 / open_gop=0 / weightp=0 / keyint=250 / keyint_min=25 / scenecut=40 / intra_refresh=0 / rc_lookahead=40 / rc=crf / mbtree=1 / crf=17.3 / qcomp=0.60 / qpmin=10 / qpmax=51 / qpstep=4 / vbv_maxrate=10000 / vbv_bufsize=10000 / crf_max=0.0 / nal_hrd=none / ip_ratio=1.40 / aq=1:1.00
Encoded date : UTC 2012-01-15 11:45:13
Tagged date : UTC 2012-01-15 15:20:58

Audio
ID : 2
Format : AAC
Format/Info : Advanced Audio Codec
Format profile : LC
Codec ID : 40
Duration : 1h 5mn
Bit rate mode : Variable
Bit rate : 111 Kbps
Maximum bit rate : 114 Kbps
Channel(s) : 1 channel
Channel positions : Front: C
Sampling rate : 48.0 KHz
Compression mode : Lossy
Stream size : 52.0 MiB (16%)
Language : Russian
Encoded date : UTC 2012-01-15 15:20:58
Tagged date : UTC 2012-01-15 15:20:58


Трекер:  [ 29-Июл-2012 21:49 ]

  

Скачать .torrent

Размер .torrent файла 11 KB


Размер: 4.03 GB
Хэш (hash) релиза: 355cb544fca87c74b2215d55c05e356b2df1ee9d
Подписка на обновления:

Еще никто не оставлял запись к записи скачать торрент [SERIAL] Семнадцать мгновений весны . Будь первым!

!Обратная связь