Скачать через торрент [SERIAL] Грязные мокрые деньги Dirty Sexy Money Фильм бесплатно в хорошем качестве torrent

Скачивайте на UnionPeer.org фильмы через торрент без регистрации. Новинки кино в хорошем качестве через торрент. На UnionPeer.org можно скачать через торрент фильмы 2014 и 2015 годов. Самые новые фильмы.

Скачать торрент [SERIAL] Грязные мокрые деньги Dirty Sexy Money бесплатно через .torrent фильм мультфильм сериал

Если у вас наблюдаются проблемы со скриншотами, переходом по ссылками, скачиванием торрентов - проблемы в блокировщике рекламы AdBlock. #хорошегоДня!


Статистика раздачи
Размер:  2.22 GB   |    Зарегистрирован:  5 лет 1 месяц   |    .torrent скачан:  33 раза   |   
Раздают:  1  
   
Загрузка...
 
Автор Сообщение

Galfimbul

avatar Galfimbul




Грязные мокрые деньги
«Нельзя быть неприлично богатым... и остаться приличным человеком.»
Оригинальное название: Dirty Sexy Money
Год выпуска: 2007
Страна: США
Студия: ''ABC Studios / Berlanti Television''
Номер сезона: 1-й сезон (10 эпизодов)
Статус сериала: закончен после 2-го сезона
Жанр: драма
Продолжительность: ~ 44 мин эпизод
Перевод: профессиональный, дублированный [ ТВ канал: ]
Режиссер: Майкл Гроссман, Роберт Берлингер, Эндрю Бернштейн
Автор идеи: Крэйг Райт, Билл Чеис, Пол Редфорд
Продюссер: Грег Берланти, Джон Хэрмон Фельдман, Питер Краузе
В ролях: Питер Краузе, Дональд Сазерленд, Уильям Болдуин, Натали Зиа, Гленн Фицджералд, Сет Гейбл, Зои МакЛеллан, Джилл Клейбёрг, Блэр Андервуд, Уилл Шэдли
Голоса дубляжа: Сергей Быстрицкий, Игорь Тарадайкин, Никита Прозоровский, Александр Быков, Александр Головчанский
Описание:
Молодой адвокат-идеалист Ник Джордж вынужден продолжить дело своего отца: работать на богатейшее семейство в Нью-Йорке, Дарлингов. У него на это 2 причины. Первая — он хочет выяснить причину смерти отца, вторая — это, конечно же, деньги. Работа ему досталась нелегкая, Дарлинги — как капризные дети.

Глава семейства — умудренный годами Трипп Дарлинг, его жена Летиция — блестящая светская дама. Их дети: будущий сенатор Патрик, у которого роман с транссексуалом; примерный семьянин Брайан, скрывающий ото всех своего внебрачного сына; профессиональная разведенка Карен и подростки-близнецы Джулиет и Джереми.

Season 1, Episode 1: Pilot
Season 1, Episode 2: The Lions
Season 1, Episode 3: The Italian Banker
Season 1, Episode 4: The Chiavennasca
Season 1, Episode 5: The Bridge
Season 1, Episode 6: The Game
Season 1, Episode 7: The Wedding
Season 1, Episode 8: The Country House
Season 1, Episode 9: The Watch
Season 1, Episode 10: The Nutcracker
Тех. информация:
Качество: WEB-DLRip[/b]
Формат: MP4 PSP AVC
Кодек видео: H.264
Кодек аудио: AAC
Видео: 480x272 (16:9), 23.976 fps, AVC, H.264, ~ 608 kbps avg, 0.194 bit/pixel
Аудио: Russian 48 kHz, AAC-LC, 2/0 (L,R) ch, ABR, ~128 kbps

General
Complete name : E:\Ripped_PSP\Грязные Мокрые Деньги (Dirty Sexy Money)\Dirty Sexy Money (1 season)\Dirty.Sexy.Money.s01e01.web-dl.rus.mp4
Format : MPEG-4
Format profile : Base Media
Codec ID : isom
File size : 228 MiB
Duration : 43mn 0s
Overall bit rate : 740 Kbps
Encoded date : UTC 2012-01-08 16:48:48
Tagged date : UTC 2012-01-08 16:48:48

Video
ID : 1
Format : AVC
Format/Info : Advanced Video Codec
Format profile : <a href="mailto:Main@L3.0" class="postLink">Main@L3.0</a>
Format settings, CABAC : Yes
Format settings, ReFrames : 3 frames
Codec ID : avc1
Codec ID/Info : Advanced Video Coding
Duration : 43mn 0s
Bit rate : 608 Kbps
Maximum bit rate : 5 199 Kbps
Width : 480 pixels
Height : 272 pixels
Display aspect ratio : 16:9
Frame rate mode : Constant
Frame rate : 23.976 fps
Color space : YUV
Chroma subsampling : 4:2:0
Bit depth : 8 bits
Scan type : Progressive
Bits/(Pixel*Frame) : 0.194
Stream size : 187 MiB (82%)
Writing library : x264 core 119 r2106 07efeb4
Encoding settings : cabac=1 / ref=3 / deblock=1:-2:0 / analyse=0x1:0x131 / me=umh / subme=10 / psy=1 / psy_rd=1.00:0.20 / mixed_ref=1 / me_range=16 / chroma_me=1 / trellis=2 / 8x8dct=0 / cqm=0 / deadzone=21,11 / fast_pskip=0 / chroma_qp_offset=-3 / threads=6 / sliced_threads=0 / nr=0 / decimate=0 / interlaced=0 / bluray_compat=0 / constrained_intra=0 / bframes=3 / b_pyramid=0 / b_adapt=2 / b_bias=0 / direct=3 / weightb=1 / open_gop=0 / weightp=2 / keyint=250 / keyint_min=23 / scenecut=40 / intra_refresh=0 / rc_lookahead=60 / rc=2pass / mbtree=1 / bitrate=608 / ratetol=1.0 / qcomp=0.60 / qpmin=0 / qpmax=69 / qpstep=4 / cplxblur=20.0 / qblur=0.5 / ip_ratio=1.40 / aq=1:1.00
Encoded date : UTC 2012-01-08 16:48:48
Tagged date : UTC 2012-01-08 16:48:54

Audio
ID : 2
Format : AAC
Format/Info : Advanced Audio Codec
Format profile : LC
Codec ID : 40
Duration : 43mn 0s
Bit rate mode : Variable
Bit rate : 128 Kbps
Maximum bit rate : 142 Kbps
Channel(s) : 2 channels
Channel positions : Front: L R
Sampling rate : 48.0 KHz
Compression mode : Lossy
Stream size : 39.4 MiB (17%)
Encoded date : UTC 2012-01-08 16:48:53
Tagged date : UTC 2012-01-08 16:48:54


Трекер:  [ 14-Июл-2012 13:54 ]

  

Скачать .torrent

Размер .torrent файла 12 KB


Размер: 2.22 GB
Хэш (hash) релиза: 15861f3fd452a288b99db04385c2af0bd05d8df3
Подписка на обновления:

Еще никто не оставлял запись к записи скачать торрент [SERIAL] Грязные мокрые деньги Dirty Sexy Money . Будь первым!

!Обратная связь