Скачать через торрент [SERIAL] Риццоли и Айлз Rizzoli & Isles Фильм бесплатно в хорошем качестве torrent

Скачивайте на UnionPeer.org фильмы через торрент без регистрации. Новинки кино в хорошем качестве через торрент. На UnionPeer.org можно скачать через торрент фильмы 2014 и 2015 годов. Самые новые фильмы.

Скачать торрент [SERIAL] Риццоли и Айлз Rizzoli & Isles бесплатно через .torrent фильм мультфильм сериал

Если у вас наблюдаются проблемы со скриншотами, переходом по ссылками, скачиванием торрентов - проблемы в блокировщике рекламы AdBlock. #хорошегоДня!


Статистика раздачи
Размер:  2.23 GB   |    Зарегистрирован:  5 лет 3 месяца   |    .torrent скачан:  44 раза   |   
Раздают:  1  
   
Загрузка...
 
Автор Сообщение

Galfimbul

avatar Galfimbul



Риццоли и Айлз
Оригинальное название: Rizzoli & Isles
Год выпуска: 2010
Страна: США
Студия: ''Ostar Productions / Warner Horizon Television''
Кол - во сезонов: 1 сезон (10 эпизодов)
Статус сериала: съёмки продолжаются, заявлен 2 сезон (13 эпизодов)
Жанр: драма, криминал, детектив
Продолжительность: ~ 45 мин эпизод
Перевод : двухголосый (закадровый)
Перевод: veretskiy Озвучивание: Morticia, kiitos Редактура: veretskiy
Режиссер: Майкл М. Робин
Сценарий: Тесс Герритсен, Джанет Тамаро, Дэйв Каплан
Продюссер: Дэйв Каплан, Майкл Уайсс, Джеффри М. Хэйес
В ролях: Энджи Хэрмон, Саша Александр, Джордан Бриджес, Ли Томпсон Янг, Брюс МакГилл, Лоррейн Бракко и др.
Описание:
Главная героиня сериала — Джейн Риццоли, бостонский детектив, которая вместе с патологоанатом Морой Айлс, раскрывает преступления.

Season 1, Episode 1: See One, Do One, Teach One
Season 1, Episode 2: Boston Strangler Redux
Season 1, Episode 3: Sympathy for the Devil
Season 1, Episode 4: She Works Hard for the Money
Season 1, Episode 5: Money for Nothing
Season 1, Episode 6: I Kissed a Girl
Season 1, Episode 7: Born to Run
Season 1, Episode 8: I'm Your Boogie Man
Season 1, Episode 9: The Beast in Me
Season 1, Episode 10: When the Gun Goes Bang, Bang, Bang
Тех. информация:
Источник: WEB-DL, HD, 720p
Качество: WEB-DLRip
Формат: MP4 PSP AVC
Кодек видео: H.264
Кодек аудио: AAC
Видео: 480x272 (16:9), 23.976 fps, AVC, H.264, ~ 608 kbps avg, 0.194 bit/pixel
Аудио: Russian 48 kHz, AAC-LC, 2/0 (L,R) ch, ABR, ~128 kbps

General
Complete name : Rizzoli.and.Isles.s01e01.web-dl.rus.mp4
Format : MPEG-4
Format profile : Base Media
Codec ID : isom
File size : 268 MiB
Duration : 50mn 54s
Overall bit rate : 737 Kbps
Encoded date : UTC 2010-10-20 12:06:26
Tagged date : UTC 2010-10-20 12:06:26

Video
ID : 1
Format : AVC
Format/Info : Advanced Video Codec
Format profile : <a href="mailto:Main@L3.0" class="postLink">Main@L3.0</a>
Format settings, CABAC : Yes
Format settings, ReFrames : 2 frames
Codec ID : avc1
Codec ID/Info : Advanced Video Coding
Duration : 50mn 54s
Bit rate mode : Variable
Bit rate : 608 Kbps
Maximum bit rate : 2 283 Kbps
Width : 480 pixels
Height : 272 pixels
Display aspect ratio : 16:9
Frame rate mode : Constant
Frame rate : 23.976 fps
Color space : YUV
Chroma subsampling : 4:2:0
Bit depth : 8 bits
Scan type : Progressive
Bits/(Pixel*Frame) : 0.194
Stream size : 220 MiB (82%)
Writing library : x264 core 86 r1442M 781d300
Language : English
Tagged date : UTC 2010-10-20 12:07:17

Audio
ID : 2
Format : AAC
Format/Info : Advanced Audio Codec
Format version : Version 4
Format profile : LC
Format settings, SBR : No
Codec ID : 40
Duration : 50mn 54s
Bit rate mode : Variable
Bit rate : 129 Kbps
Maximum bit rate : 142 Kbps
Channel(s) : 2 channels
Channel positions : Front: L R
Sampling rate : 48.0 KHz
Stream size : 47.0 MiB (17%)
Encoded date : UTC 2010-10-20 12:07:16
Tagged date : UTC 2010-10-20 12:07:17


Трекер:  [ 14-Июл-2012 13:53 ]

  

Скачать .torrent

Размер .torrent файла 12 KB


Размер: 2.23 GB
Хэш (hash) релиза: 8898208978262a739970bbcda1384c154e86c02d
Подписка на обновления:

Торренты, похожие на [SERIAL] Риццоли и Айлз Rizzoli & Isles скачать торрент

Форум Название Автор Размер S L Добавлен
Видео для Консолей ·· [SERIAL] Риццоли и Айлз / Rizzoli & Isles (Билл Хабер) [2 сезон][15 эпизодов из 15][NewStudio.TV][2011-2012 гг., драма, криминал, детектив, WEB-DLRip] MVO Galfimbul 35159154513.27 GB 0 0 1342260420

13:07

14-Июл-12

Еще никто не оставлял запись к записи скачать торрент [SERIAL] Риццоли и Айлз Rizzoli & Isles . Будь первым!

!Обратная связь