Скачать через торрент [SERIAL]Тайный круг The Secret Circle Фильм бесплатно в хорошем качестве torrent

Скачивайте на UnionPeer.org фильмы через торрент без регистрации. Новинки кино в хорошем качестве через торрент. На UnionPeer.org можно скачать через торрент фильмы 2014 и 2015 годов. Самые новые фильмы.

Скачать торрент [SERIAL]Тайный круг The Secret Circle бесплатно через .torrent фильм мультфильм сериал

Если у вас наблюдаются проблемы со скриншотами, переходом по ссылками, скачиванием торрентов - проблемы в блокировщике рекламы AdBlock. #хорошегоДня!


Статистика раздачи
Размер:  4.23 GB   |    Зарегистрирован:  5 лет 4 месяца   |    .torrent скачан:  42 раза   |   
Раздают:  1  
   
Загрузка...
 
Автор Сообщение

Galfimbul

avatar Galfimbul


Тайный круг

Оригинальное название: The Secret Circle
Год выпуска: 2011 г.
Страна: США, Канада
Жанр: ужасы,фэнтези,драма
Продолжительность: 00:41:00
Перевод: Любительский (многоголосый закадровый) ( с 10 серии) [TO-ArtSound] (17-22 серия LostFilm)
Режиссер: Лиз Фридлендер
В ролях:
* Бриттани Робертсон — Кэсси Блейк
* Томас Деккер — Адам Конант
* Шелли Хенниг — Диана Мид
*Фиби Тонкин — Фэй Чемберлен
* Джессика Паркер Кеннеди — Мелисса Глейзер
* Луис Хантер — Ник Армстронг
* Наташа Хенстридж — Директор Доун Чемберлен
* Гейл Харольд — Томас Мид
* Эшли Кроу — Джейн Блейк
Описание: После трагической гибели матери, старшеклассница Кэсси Блейк переезжает к своей бабушке в маленький городок Ченс-Харбор. Очень скоро выясняется, что возвращение Кэсси в город, где родилась и выросла её мать, не было случайностью - оказывается, Кэсси потомственная ведьма, и юному ведьмовскому клану как раз не хватало шестого участника, чтобы обрести полную силу. Но почему мать никогда не рассказывала Кэсси о своих и её способностях? Какая трагедия 16 лет назад лишила каждого участника Тайного Круга одного из родителей? И что замышляют те представители старшего поколения ведьм, что остались в живых? У Тайного Круга очень много тайн...

Качество видео: HDTVRip
Формат: MP4
Видео кодек: х264
Аудио кодек: AAC
Видео: MPEG-4 480х272 16:9 518 Кбит/сек
Аудио: AAC 2 ch 129 Кбит/сек 48,0 КГц
1. Pilot - Пилотная серия
2. Bound - Связанный
3. Loner - Одиночка
4. Heather - Хэзер
5. Slither - Слизняк
6. Wake - Поминки
7. Masked - Маскарад
8. Beneath - На дне
9. Balcoin - Балкойн
10.Darkness - Темнота
11.Fire/Ice - Огонь/Лёд
12.Witness - Свидетель
13.Medallion - Медальон
14.«Valentine» - День Валентина
15."Return" Возвращение
16."Lucky" - Счастливчик
17."Curse" Проклятие
18."Sacrifice" Жертвоприношение
19."Crystal" - Кристалл
20."Traitor" - Предатель
21."Prom" - Школьный бал
22."Family" - Семья
Format : MPEG-4
Format profile : Base Media
Codec ID : isom
File size : 200 MiB
Duration : 41mn 50s
Overall bit rate mode : Variable
Overall bit rate : 669 Kbps
Encoded date : UTC 2012-01-07 08:03:24
Tagged date : UTC 2012-01-07 08:03:24

Video
ID : 1
Format : AVC
Format/Info : Advanced Video Codec
Format profile : <a href="mailto:Main@L3.0" class="postLink">Main@L3.0</a>
Format settings, CABAC : Yes
Format settings, ReFrames : 3 frames
Codec ID : avc1
Codec ID/Info : Advanced Video Coding
Duration : 41mn 50s
Bit rate : 518 Kbps
Maximum bit rate : 2 979 Kbps
Width : 480 pixels
Height : 272 pixels
Display aspect ratio : 16:9
Frame rate mode : Constant
Frame rate : 23.976 fps
Color space : YUV
Chroma subsampling : 4:2:0
Bit depth : 8 bits
Scan type : Progressive
Bits/(Pixel*Frame) : 0.165
Stream size : 155 MiB (77%)
Writing library : x264 core 119 r2106 07efeb4
Encoding settings : cabac=1 / ref=3 / deblock=1:-1:-1 / analyse=0x1:0x131 / me=umh / subme=7 / psy=1 / psy_rd=1.00:0.15 / mixed_ref=1 / me_range=16 / chroma_me=1 / trellis=2 / 8x8dct=0 / cqm=0 / deadzone=21,11 / fast_pskip=0 / chroma_qp_offset=-3 / threads=6 / sliced_threads=0 / nr=0 / decimate=1 / interlaced=0 / bluray_compat=0 / constrained_intra=0 / bframes=3 / b_pyramid=0 / b_adapt=2 / b_bias=0 / direct=1 / weightb=1 / open_gop=0 / weightp=2 / keyint=250 / keyint_min=23 / scenecut=40 / intra_refresh=0 / rc_lookahead=60 / rc=abr / mbtree=1 / bitrate=518 / ratetol=1.0 / qcomp=0.60 / qpmin=0 / qpmax=69 / qpstep=4 / ip_ratio=1.40 / aq=1:1.00
Encoded date : UTC 2012-01-07 08:03:24
Tagged date : UTC 2012-01-07 08:03:31

Audio
ID : 2
Format : AAC
Format/Info : Advanced Audio Codec
Format profile : LC
Codec ID : 40
Duration : 41mn 50s
Bit rate mode : Variable
Bit rate : 148 Kbps
Maximum bit rate : 177 Kbps
Channel(s) : 2 channels
Channel positions : Front: L R
Sampling rate : 48.0 KHz
Compression mode : Lossy
Stream size : 44.4 MiB (22%)
Encoded date : UTC 2012-01-07 08:03:30
Tagged date : UTC 2012-01-07 08:03:31


Трекер:  [ 14-Июл-2012 13:51 ]

  

Скачать .torrent

Размер .torrent файла 14 KB


Размер: 4.23 GB
Хэш (hash) релиза: 535bf5ce4ed803d3cba65beb111978d2b91cfc53
Подписка на обновления:

Еще никто не оставлял запись к записи скачать торрент [SERIAL]Тайный круг The Secret Circle . Будь первым!

!Обратная связь