Скачать через торрент [SERIAL] Сыны Анархии Sons of Anarchy Фильм бесплатно в хорошем качестве torrent

Скачивайте на UnionPeer.org фильмы через торрент без регистрации. Новинки кино в хорошем качестве через торрент. На UnionPeer.org можно скачать через торрент фильмы 2014 и 2015 годов. Самые новые фильмы.

Скачать торрент [SERIAL] Сыны Анархии Sons of Anarchy бесплатно через .torrent фильм мультфильм сериал

Если у вас наблюдаются проблемы со скриншотами, переходом по ссылками, скачиванием торрентов - проблемы в блокировщике рекламы AdBlock. #хорошегоДня!


Статистика раздачи
Размер:  2.77 GB   |    Зарегистрирован:  5 лет 1 месяц   |    .torrent скачан:  67 раз   |   
Раздают:  1  
   
Загрузка...
 
Автор Сообщение

Galfimbul

avatar Galfimbul



Сыны Анархии / Sons of AnarchyСезон 3 / Season 3
Оригинальное название: Sons of Anarchy
Год выпуска: 2010 г.
Страна: США
Жанр: Драма, криминал
Продолжительность: ~46 минут (1-ая серия ~52 минуты)
Перевод: Профессиональный (многоголосый закадровый)
Режиссер: Стефен Т. Кэй, Гай Ферленд
В ролях: Чарли Ханнэм, Кэти Сагал, Марк Бун Джуниор, Джонни Льюис, Мэгги Сифф, Рон Перлман, Ким Коутс, Томми Флэнаган, Тео Росси, Райан Херст
Перевод:Профессиональный (многоголосый, закадровый)
Описание: «Сыны Анархии» — сериал рассказывает о клубе байкеров, которые пытаются защитить свой городок от наркотиков и влияния из вне, хотя сами грешат торговлей оружия.
Список серий:
1. Итак... (So)
2. Промасленный (Oiled)
3. Сиделка (Caregiver)
4. Дом (Home)
5. Поворот за поворотом (Turning and Turning)
6. Нажим (The Push)
7. Расширяя круг (Widening Gyre)
8. Лохан Мор (Lochan Mor)
9. Тур (Turas)
10. Правда (Firinne)
11. Молоко (Bainne)
12. Свадьба Джун (June Wedding)
Доп. информация:
Перевод: Петр Чайников
Озвучивание: Студия "LostFilm"
Качество видео: HDTVRip
Формат: MP4
Видео кодек: H.264
Аудио кодек: AAC
Видео: H.264 480x272; Bitrate:512Kbps; Framerate:29
Аудио: AAC Bitrate:128Kbps; 48000Hz; stereo
General
Complete name : J:\PSP\FILM\Сыны Анархии\Сыны Анархии 3\Сыны Анархии 6.mp4
Format : MPEG-4
Format profile : Sony PSP
Codec ID : MSNV
File size : 195 MiB
Duration : 42mn 35s
Overall bit rate : 641 Kbps

Video
ID : 1
Format : AVC
Format/Info : Advanced Video Codec
Format profile : <a href="mailto:Main@L2.1" class="postLink">Main@L2.1</a>
Format settings, CABAC : Yes
Format settings, ReFrames : 3 frames
Format settings, GOP : M=4, N=13
Codec ID : avc1
Codec ID/Info : Advanced Video Coding
Duration : 42mn 35s
Bit rate mode : Variable
Bit rate : 505 Kbps
Width : 480 pixels
Height : 272 pixels
Display aspect ratio : 16:9
Frame rate mode : Constant
Frame rate : 29.970 fps
Color space : YUV
Chroma subsampling : 4:2:0
Bit depth : 8 bits
Scan type : Progressive
Bits/(Pixel*Frame) : 0.129
Stream size : 154 MiB (79%)

Audio
ID : 2
Format : AAC
Format/Info : Advanced Audio Codec
Format profile : LC
Codec ID : 40
Duration : 42mn 35s
Bit rate mode : Variable
Bit rate : 128 Kbps
Channel(s) : 2 channels
Channel positions : Front: L R
Sampling rate : 48.0 KHz
Compression mode : Lossy
Stream size : 39.0 MiB (20%)
General
Complete name : J:\PSP\FILM\Сыны Анархии\Сыны Анархии 3\Сыны Анархии 13.mp4
Format : MPEG-4
Format profile : Sony PSP
Codec ID : MSNV
File size : 285 MiB
Duration : 1h 1mn
Overall bit rate : 645 Kbps

Video
ID : 1
Format : AVC
Format/Info : Advanced Video Codec
Format profile : <a href="mailto:Main@L2.1" class="postLink">Main@L2.1</a>
Format settings, CABAC : Yes
Format settings, ReFrames : 3 frames
Format settings, GOP : M=4, N=13
Codec ID : avc1
Codec ID/Info : Advanced Video Coding
Duration : 1h 1mn
Bit rate mode : Variable
Bit rate : 509 Kbps
Width : 480 pixels
Height : 272 pixels
Display aspect ratio : 16:9
Frame rate mode : Constant
Frame rate : 29.970 fps
Color space : YUV
Chroma subsampling : 4:2:0
Bit depth : 8 bits
Scan type : Progressive
Bits/(Pixel*Frame) : 0.130
Stream size : 225 MiB (79%)

Audio
ID : 2
Format : AAC
Format/Info : Advanced Audio Codec
Format profile : LC
Codec ID : 40
Duration : 1h 1mn
Bit rate mode : Variable
Bit rate : 128 Kbps
Channel(s) : 2 channels
Channel positions : Front: L R
Sampling rate : 48.0 KHz
Compression mode : Lossy
Stream size : 56.5 MiB (20%)


Трекер:  [ 14-Июл-2012 13:51 ]

  

Скачать .torrent

Размер .torrent файла 15 KB


Размер: 2.77 GB
Хэш (hash) релиза: cea25888682a58131a756c251726b5018fbc0baa
Подписка на обновления:

Еще никто не оставлял запись к записи скачать торрент [SERIAL] Сыны Анархии Sons of Anarchy . Будь первым!

!Обратная связь