Скачать через торрент [SERIAL] Андромеда Andromeda Фильм бесплатно в хорошем качестве torrent

Скачивайте на UnionPeer.org фильмы через торрент без регистрации. Новинки кино в хорошем качестве через торрент. На UnionPeer.org можно скачать через торрент фильмы 2014 и 2015 годов. Самые новые фильмы.

Скачать торрент [SERIAL] Андромеда Andromeda бесплатно через .torrent фильм мультфильм сериал

Если у вас наблюдаются проблемы со скриншотами, переходом по ссылками, скачиванием торрентов - проблемы в блокировщике рекламы AdBlock. #хорошегоДня!


Статистика раздачи
Размер:  23.34 GB   |    Зарегистрирован:  5 лет 4 месяца   |    .torrent скачан:  109 раз   |   
Раздают:  1  
   
Загрузка...
 
Автор Сообщение

Galfimbul

avatar Galfimbul


Андромеда
Оригинальное Название: Gene Roddenberry’s Andromeda
Год выпуска: 2000
Страна: Канада, США.
Жанр: Фантастика
Кол-во Сезонов: 5
Кол-во Серий: 110
Перевод: Профессиональный (многоголосый, закадровый).[Домашний, TV3 (5 сезон)]
Продолжительность: 41мин. серия
Режиссер: Питер Де Луис (Peter DeLuise), Филип Дэвид Сигал (Philip David Segal), Дэвид Виннинг (David Winning)

В ролях: Кевин Сорбо (Kevin Sorbo), Лиза Райдер (Lisa Ryder), Кейт Хамильтон Кобб (Keith Hamilton Cobb), Лекса Дойг (Lexa Doig), Лаура Бертрам (Laura Bertram)
Описание: Дилан Хант - капитан космического корабля «Andromeda Ascendant» («Восходящая Андромеда»). «Андромеда» - военный корабль воздушного флота Содружества Систем. Содружество Систем - это монархическое государство, территория которого простирается на несколько галактик. Дилан Хант и его команда были заморожены во времена расцвета «Содружества Систем». Через несколько веков они очнулись от криогенного сна и обнаружили, что Содружество Систем прекратило существование. Все системы, входившие когда-то в мощное Содружество, пришли в упадок, постепенно деградировали и дошли до уровня варварства. Хант видит своей задачей восстановить былое величие и порядок Содружества систем. «Андромеда» - живой корабль, он может общаться с капитаном и членами экипажа в образе прекрасной девушки. «Андромеда», капитан Хант и его команда отправляются в долгое космическое путешествие, чтобы навести порядок во вселенной.
1 сезон:

1. Under the Night
2. An Affirming Flame
3. To Loose the Fateful Lightning
4. D Minus Zero
5. Double Helix
6. Angel Dark, Demon Bright
7. The Ties That Blind
8. The Banks of the Lethe
9. A Rose in the Ashes
10. All Great Neptune's Ocean
11. The Pearls That Were His Eyes
12. The Mathematics of Tears
13. Music of a Distant Drum
14. Harper 2.0
15. Forced Perspective
16. The Sum of Its Parts
17. Fear and Loathing in the Milky Way
18. The Devil Take the Hindmost
19. The Honey Offering
20. Star-Crossed
21. It Makes a Lovely Light
22. Its Hour Come 'Round at Last

2 сезон:

1. The Widening Gyre
2. Exit Strategies
3. A Heart for Falsehood Framed
4. Pitiless as the Sun
5. Last Call at the Broken Hammer
6. All Too Human
7. Una Salus Victus
8. Home Fires
9. Into the Labyrinth
10. The Prince
11. Bunker Hill
12. Ouroboros
13. Lava and Rockets
14. Be All My Sins Remembered
15. Dance of the Mayflies
16. In Heaven Now Are Three
17. The Things We Cannot Change
18. The Fair Unknown
19. Belly of the Beast
20. The Knight, Death and the Devil
21. Immaculate Perception
22. Tunnel at the End of the Light

3 сезон:

1. If the Wheel Is Fixed
2. The Shards of Rimini
3. Mad to Be Saved
4. Cui Bono
5. The Lone and Level Sands
6. Slipfighter the Dogs of War
7. The Leper's Kiss
8. For Whom the Bell Tolls
9. And Your Heart Will Fly Away
10. The Unconquerable Man
11. Delenda Est
12. The Dark Backward
13. The Risk-All Point
14. The Right Horse
15. What Happens to a Rev Deferred?
16. Point of the Spear
17. Vault of the Heavens
18. Deep Midnight's Voice
19. The Illusion of Majesty
20. Twilight of the Idols
21. Day of Judgement, Day of Wrath
22. Shadows Cast by a Final Salute

4 сезон:

1. Answers Given to Questions Never Asked
2. Pieces of Eight
3. Waking the Tyrant's Device
4. Double or Nothingness
5. Harper/Delete
6. Soon the Nearing Vortex
7. The World Turns All Around Her
8. Conduit to Destiny
9. Machinery of the Mind
10. Exalted Reason, Resplendent Daughter
11. The Torment, the Release
12. The Spider's Stratagem
13. The Warmth of an Invisible Light
14. The Others
15. Fear Burns Down to Ashes
16. Lost in a Space that isn't There?
17. Abridging the Devil's Divide
18. Trusting the Gordian Maze
19. A Symmetry of Imperfection
20. Time Out of Mind
21. The Dissonant Interval (Part I)
22. The Dissonant Interval (Part II)

5 сезон:

1. The Weight: Part 1
2. The Weight: Part 2
3. Phear Phactor Phenom
4. Decay of the Angel
5. The Eschatology of Our Present
6. When Goes Around...
7. Attempting Screed
8. So Burn the Untamed Lands
9. What Will Be Was Not
10. The Test
11. Through a Glass, Darkly
12. Pride Before the Fall
13. Moonlight Becomes You
14. Past Is Prolix
15. The Opposites of Attraction
16. Saving Light from a Black Sun
17. Totaled Recall
18. Quantum Tractate Delirium
19. One More Day's Light
20. Chaos and the Stillness of It
21. The Heart of the Journey: Part 1
22. The Heart of the Journey: Part 2

Качество: TVRip
Формат: MP4
Видео кодек: H.264
Аудио кодек: AAC
Видео: AVC 368x272 25.000 fps
Аудио: aac 44100Hz stereo 129Kbps

General
Complete name :andromeda_S1_01.mp4
Format : MPEG-4
Format profile : Base Media
Codec ID : isom
File size : 213 MiB
Duration : 40mn 13s
Overall bit rate : 740 Kbps
Encoded date : UTC 2011-02-02 13:28:42
Tagged date : UTC 2011-02-02 13:28:42
Video
ID : 1
Format : AVC
Format/Info : Advanced Video Codec
Format profile : <a href="mailto:Main@L3.0" class="postLink">Main@L3.0</a>
Format settings, CABAC : Yes
Format settings, ReFrames : 3 frames
Codec ID : avc1
Codec ID/Info : Advanced Video Coding
Duration : 40mn 13s
Bit rate mode : Variable
Bit rate : 608 Kbps
Maximum bit rate : 2 619 Kbps
Width : 368 pixels
Height : 272 pixels
Display aspect ratio : 4:3
Original display aspect ratio : 4:3
Frame rate mode : Constant
Frame rate : 25.000 fps
Resolution : 8 bits
Colorimetry : 4:2:0
Scan type : Progressive
Bits/(Pixel*Frame) : 0.243
Stream size : 175 MiB (82%)
Writing library : x264 core 56 svn-667M
Encoding settings : cabac=1 / ref=2 / deblock=1:0:0 / analyse=0x1:0x131 / me=umh / subme=6 / brdo=1 / mixed_ref=1 / me_range=16 / chroma_me=1 / trellis=1 / 8x8dct=0 / cqm=0 / deadzone=21,11 / chroma_qp_offset=0 / threads=2 / nr=0 / decimate=1 / mbaff=0 / bframes=3 / b_pyramid=0 / b_adapt=1 / b_bias=0 / direct=3 / wpredb=1 / bime=1 / keyint=250 / keyint_min=25 / scenecut=40(pre) / rc=2pass / bitrate=608 / ratetol=1.0 / rceq='blurCplx^(1-qComp)' / qcomp=0.60 / qpmin=10 / qpmax=51 / qpstep=4 / cplxblur=20.0 / qblur=0.5 / ip_ratio=1.40 / pb_ratio=1.30
Encoded date : UTC 2011-02-02 13:28:42
Tagged date : UTC 2011-02-02 13:30:11
Audio
ID : 2
Format : AAC
Format/Info : Advanced Audio Codec
Format version : Version 4
Format profile : LC
Format settings, SBR : No
Codec ID : 40
Duration : 40mn 13s
Bit rate mode : Variable
Bit rate : 129 Kbps
Maximum bit rate : 149 Kbps
Channel(s) : 2 channels
Channel positions : L R
Sampling rate : 44.1 KHz
Stream size : 37.1 MiB (17%)
Encoded date : UTC 2011-02-02 13:30:05
Tagged date : UTC 2011-02-02 13:30:11

5 сезон:

General
Complete name : Andromeda.s5e05.mp4
Format : MPEG-4
Format profile : Base Media
Codec ID : isom
File size : 218 MiB
Duration : 41mn 10s
Overall bit rate : 740 Kbps
Encoded date : UTC 2011-02-24 20:12:59
Tagged date : UTC 2011-02-24 20:12:59

Video
ID : 1
Format : AVC
Format/Info : Advanced Video Codec
Format profile : <a href="mailto:Main@L3.0" class="postLink">Main@L3.0</a>
Format settings, CABAC : Yes
Format settings, ReFrames : 3 frames
Codec ID : avc1
Codec ID/Info : Advanced Video Coding
Duration : 41mn 10s
Bit rate mode : Variable
Bit rate : 608 Kbps
Maximum bit rate : 2 393 Kbps
Width : 480 pixels
Height : 272 pixels
Display aspect ratio : 16:9
Frame rate mode : Constant
Frame rate : 25.000 fps
Resolution : 8 bits
Colorimetry : 4:2:0
Scan type : Progressive
Bits/(Pixel*Frame) : 0.186
Stream size : 179 MiB (82%)
Writing library : x264 core 56 svn-667M
Encoding settings : cabac=1 / ref=2 / deblock=1:0:0 / analyse=0x1:0x131 / me=umh / subme=6 / brdo=1 / mixed_ref=1 / me_range=16 / chroma_me=1 / trellis=1 / 8x8dct=0 / cqm=0 / deadzone=21,11 / chroma_qp_offset=0 / threads=2 / nr=0 / decimate=1 / mbaff=0 / bframes=3 / b_pyramid=0 / b_adapt=1 / b_bias=0 / direct=3 / wpredb=1 / bime=1 / keyint=250 / keyint_min=25 / scenecut=40(pre) / rc=2pass / bitrate=608 / ratetol=1.0 / rceq='blurCplx^(1-qComp)' / qcomp=0.60 / qpmin=10 / qpmax=51 / qpstep=4 / cplxblur=20.0 / qblur=0.5 / ip_ratio=1.40 / pb_ratio=1.30
Encoded date : UTC 2011-02-24 20:12:59
Tagged date : UTC 2011-02-24 20:14:10

Audio
ID : 2
Format : AAC
Format/Info : Advanced Audio Codec
Format version : Version 4
Format profile : LC
Format settings, SBR : No
Codec ID : 40
Duration : 41mn 10s
Bit rate mode : Variable
Bit rate : 129 Kbps
Maximum bit rate : 147 Kbps
Channel(s) : 2 channels
Channel positions : L R
Sampling rate : 48.0 KHz
Stream size : 38.0 MiB (17%)
Encoded date : UTC 2011-02-24 20:14:06
Tagged date : UTC 2011-02-24 20:14:10


Трекер:  [ 14-Июл-2012 13:51 ]

  

Скачать .torrent

Размер .torrent файла 124 KB


Размер: 23.34 GB
Хэш (hash) релиза: c8792e12200e5dd28e2d1576d5163071d3781c68
Подписка на обновления:

Еще никто не оставлял запись к записи скачать торрент [SERIAL] Андромеда Andromeda . Будь первым!

!Обратная связь