Скачать через торрент Алькатрас Alcatraz Фильм бесплатно в хорошем качестве torrent

Скачивайте на UnionPeer.org фильмы через торрент без регистрации. Новинки кино в хорошем качестве через торрент. На UnionPeer.org можно скачать через торрент фильмы 2014 и 2015 годов. Самые новые фильмы.

Скачать торрент Алькатрас Alcatraz бесплатно через .torrent фильм мультфильм сериал

Если у вас наблюдаются проблемы со скриншотами, переходом по ссылками, скачиванием торрентов - проблемы в блокировщике рекламы AdBlock. #хорошегоДня!


Статистика раздачи
Размер:  2.94 GB   |    Зарегистрирован:  5 лет 1 месяц   |    .torrent скачан:  42 раза   |   
Раздают:  1  
   
Загрузка...
 
Автор Сообщение

Galfimbul

avatar Galfimbul




Алькатрас
«302 исчезли. 3 должны найти их»
Оригинальное название: Alcatraz
Год выпуска: 2011-2012
Страна: США
Студия: ''Alcatraz Films / Bad Robot''
Номер сезона: 1 сезон (13 эпизодов)
Статус сериала: идет показ
Жанр: боевик, триллер, детектив
Продолжительность: ~ 44 мин эпизод
Перевод: профессиональный, двухголосый, закадровый (релиз группы: )
Режиссер: Брэд Андерсон, Джек Бендер, Дэнни Кэннон
Автор идеи: Стивен Лилиен, Лиз Сарнофф, Брайан Винбрандт
Продюссер: Роберт Халл
В ролях: Джонатан Койн, Сэмюэл Патрик Чу, Хорхе Гарсиа, Сара Джонс, Джеффри Пирс, Дэвид Хофлин, Joe Egender, Джинэнн Гуссен, Сэм Нил, Джеймс Бэмфорд, и др.
Описание:
История доктора Диего Сото, лучшего в мире знатока самой знаменитой американской тюрьмы «Алькатрас», расположенной на острове у берегов Сан-Франциско. Сото предстоит разгадать тайну, связанную с загадочным исчезновением заключенных и охранников «Алькатраса» много лет назад и неожиданным их появлением в уже недействующей тюрьме (она была закрыта в 1963 году) в наши дни.

Season 1, Episode 1: Pilot
Season 1, Episode 2: Ernest Cobb
Season 1, Episode 3: Kit Nelson
Season 1, Episode 4: Cal Sweeney
Season 1, Episode 5: Guy Hastings
Season 1, Episode 6: Paxton Petty
Season 1, Episode 7: Johnny McKee
Season 1, Episode 8: Clarence Montgomery
Season 1, Episode 9: The Ames Bros.
Season 1, Episode 10: Sonny Burnett
Season 1, Episode 11: Webb Porter
Season 1, Episode 12: Garrett Stillman
Season 1, Episode 13: Tommy Madsen
Тех. информация:
Качество: WEB-DLRip
Формат: MP4 PSP AVC
Кодек видео: H.264
Кодек аудио: AAC
Видео: 480x272 (16:9), 23.976 fps, AVC, H.264, ~ 608 kbps avg, 0.194 bit/pixel
Аудио: Russian 48 kHz, AAC-LC, 2/0 (L,R) ch, ABR, ~128 kbps

General
Complete name : E:\Ripped_PSP\Алькатрас (Alcatraz, 1 season)\Alcatraz.s01e01.webdl.rus.mp4
Format : MPEG-4
Format profile : Base Media
Codec ID : isom
File size : 235 MiB
Duration : 44mn 29s
Overall bit rate : 740 Kbps
Encoded date : UTC 2012-01-18 03:54:14
Tagged date : UTC 2012-01-18 03:54:14

Video
ID : 1
Format : AVC
Format/Info : Advanced Video Codec
Format profile : <a href="mailto:Main@L3.0" class="postLink">Main@L3.0</a>
Format settings, CABAC : Yes
Format settings, ReFrames : 3 frames
Codec ID : avc1
Codec ID/Info : Advanced Video Coding
Duration : 44mn 29s
Bit rate : 608 Kbps
Maximum bit rate : 2 377 Kbps
Width : 480 pixels
Height : 272 pixels
Display aspect ratio : 16:9
Frame rate mode : Constant
Frame rate : 23.976 fps
Color space : YUV
Chroma subsampling : 4:2:0
Bit depth : 8 bits
Scan type : Progressive
Bits/(Pixel*Frame) : 0.194
Stream size : 193 MiB (82%)
Writing library : x264 core 119 r2106 07efeb4
Encoding settings : cabac=1 / ref=3 / deblock=1:-2:0 / analyse=0x1:0x131 / me=umh / subme=10 / psy=1 / psy_rd=1.00:0.20 / mixed_ref=1 / me_range=16 / chroma_me=1 / trellis=2 / 8x8dct=0 / cqm=0 / deadzone=21,11 / fast_pskip=0 / chroma_qp_offset=-3 / threads=6 / sliced_threads=0 / nr=0 / decimate=0 / interlaced=0 / bluray_compat=0 / constrained_intra=0 / bframes=3 / b_pyramid=0 / b_adapt=2 / b_bias=0 / direct=3 / weightb=1 / open_gop=0 / weightp=2 / keyint=250 / keyint_min=23 / scenecut=40 / intra_refresh=0 / rc_lookahead=60 / rc=2pass / mbtree=1 / bitrate=608 / ratetol=1.0 / qcomp=0.60 / qpmin=0 / qpmax=69 / qpstep=4 / cplxblur=20.0 / qblur=0.5 / ip_ratio=1.40 / aq=1:1.00
Encoded date : UTC 2012-01-18 03:54:14
Tagged date : UTC 2012-01-18 03:54:19

Audio
ID : 2
Format : AAC
Format/Info : Advanced Audio Codec
Format profile : LC
Codec ID : 40
Duration : 44mn 29s
Bit rate mode : Variable
Bit rate : 128 Kbps
Maximum bit rate : 144 Kbps
Channel(s) : 2 channels
Channel positions : Front: L R
Sampling rate : 48.0 KHz
Compression mode : Lossy
Stream size : 40.7 MiB (17%)
Encoded date : UTC 2012-01-18 03:54:18
Tagged date : UTC 2012-01-18 03:54:19


Трекер:  [ 14-Июл-2012 13:50 ]

  

Скачать .torrent

Размер .torrent файла 16 KB


Размер: 2.94 GB
Хэш (hash) релиза: 8a1a4877cf1302e99f74896c1e11a642466e6c95
Подписка на обновления:

Торренты, похожие на Алькатрас Alcatraz скачать торрент

Форум Название Автор Размер S L Добавлен
Зарубежные сериалы ·· Алькатрас / Alcatraz Сезон 1 эпизод 1-6(??)(Брэд Андерсон, Джек Бендер, Дэнни Кэннон)[2012 г., боевик, триллер, детектив, WEB-DLRip 400p](Кубик в Кубе) L 54675923745.09 GB 0 0 1328796503

17:08

9-Фев-12

Зарубежные сериалы ·· Алькатрас / Alcatraz / 1 Сезон / Серии 1-6 (13) (Джек Бендер) [2012, Триллер, WEB-DL 720p] (DD 5.1 Кубик в Кубе) L 96093741098.95 GB 0 0 1328108202

17:56

1-Фев-12

Зарубежные сериалы ·· Алькатрас / Alcatraz / Сезон: 1 / Серии: 1-2 (13) (Джек Бендер) [2012, Криминал, Мистика, Триллер, HDTV 720p 59,94 fps] (Lostfilm DD 5.1) Original + sub L 99978230389.31 GB 0 0 1327301333

09:48

23-Янв-12

Зарубежные сериалы ·· Алькатрас / Alcatraz / Сезон 1 Серии 1-6 (13) (Брэд Андерсон, Джек Бендер, Дэнни Кэннон) [2012 г., боевик, триллер, детектив, WEB-DL 720p] (MVO LostFilm | Original + Sub) L 96094337978.95 GB 0 0 1327057851

14:10

20-Янв-12

Зарубежные сериалы ·· Алькатрас / Alcatraz / 1 Сезон / Серии 1-6(13) (Джек Бендер) [2012, Триллер, WEB-DLRip] (Lostfilm) L 34078801923.17 GB 0 0 1326918258

23:24

18-Янв-12

Зарубежные сериалы ·· Алькатрас / Alcatraz Сезон 1 эпизод 1-6(??) (Брэд Андерсон, Джек Бендер, Дэнни Кэннон) [2012 г., боевик, триллер, детектив, WEB-DLRip](Кубик в Кубе) L 28762825502.68 GB 0 0 1326827630

22:13

17-Янв-12

Зарубежные сериалы ·· Алькатрас / Alcatraz / Сезон: 1 / Серии: 1-7 из ?? (Брэд Андерсон, Джек Бендер, Дэнни Кэннон) [2011, боевик, триллер, детектив, HDTVRip] Original + rus sub (notabenoid) L 25663299552.39 GB 0 0 1326827574

22:12

17-Янв-12

Зарубежные фильмы до 2016 ·· Любитель птиц из Алькатраса / Birdman of Alcatraz (Джон Франкенхаймер, Чарльз Крайтон / John Frankenheimer, Charles Crichton) [1962 г., США, драма, биография, BDRip 720p] MVO (DVD Classic) + Original Eng + Sub Eng Galfimbul 1311777729312.22 GB 0 0 1421496758

15:12

17-Янв-15

Зарубежные фильмы до 2016 ·· Побег из Алькатраса / Escape from Alcatraz (Дон Сигел / Don Siegel) [1979 г., Триллер, HDRip] MVO + AVO (Михалёв) + Eng Supportive 23767900162.21 GB 0 0 1364809299

12:41

1-Апр-13

Зарубежные фильмы до 2016 ·· Побег из Алькатраса / Escape from Alcatraz (Дон Сигел / Don Siegel) [1979 г., драма, триллер, HDTVRip-AVC] Михалёв Galfimbul 15590034941.45 GB 0 0 1364798190

09:36

1-Апр-13

Зарубежные фильмы до 2016 ·· Побег из Алькатраса / Escape from Alcatraz (Дон Сигел / Don Siegel) [1979, США, боевик, триллер, драма, криминал, BDRemux>DVD9 (Custom)] MVO + MVO + MVO + AVO + original eng + Sub (En,Rus) Galfimbul 83149291527.74 GB 0 0 1362033007

09:30

28-Фев-13

Зарубежные фильмы до 2016 ·· Побег из Алькатраса / Escape from Alcatraz ( Дон Сигел / Don Siegel ) [1979 г., Триллер, DVD9] sebladec 74962391046.98 GB 0 0 1295167504

11:45

16-Янв-11

Зарубежные фильмы до 2016 ·· Побег из Алькатраса / Escape from Alcatraz (Дон Сигел / Don Siegel) [1979 г., Триллер, криминал,драма, DVDRip] VitalMedix 22148177922.06 GB 0 0 1286106485

14:48

3-Окт-10

Еще никто не оставлял запись к записи скачать торрент Алькатрас Alcatraz . Будь первым!

!Обратная связь