Скачать через торрент [SERIAL] Воздействие Leverage Фильм бесплатно в хорошем качестве torrent

Скачивайте на UnionPeer.org фильмы через торрент без регистрации. Новинки кино в хорошем качестве через торрент. На UnionPeer.org можно скачать через торрент фильмы 2014 и 2015 годов. Самые новые фильмы.

Скачать торрент [SERIAL] Воздействие Leverage бесплатно через .torrent фильм мультфильм сериал

Если у вас наблюдаются проблемы со скриншотами, переходом по ссылками, скачиванием торрентов - проблемы в блокировщике рекламы AdBlock. #хорошегоДня!


Статистика раздачи
Размер:  3.94 GB   |    Зарегистрирован:  5 лет 4 месяца   |    .torrent скачан:  45 раз   |   
Раздают:  1  
   
Загрузка...
 
Автор Сообщение

Galfimbul

avatar Galfimbul



Воздействие
«Get Ready to Get Even.»
Оригинальное название: Leverage
Год выпуска: 2011
Страна: США
Студия: ''Electric Entertainment''
Номер сезона: 4 сезон (18 эпизодов)
Статус сериала: идет показ
Жанр: триллер, драма, криминал, детектив
Продолжительность: ~ 44 мин эпизод
Перевод : профессиональный, многоголосый, закадровый (релиз группа )
Режиссер: Дин Девлин, Марк Роскин, Джонатан Фрейкс
Автор идеи: Крис Дауни, Джон Эбауд, Майкл Колтон
Продюссер: Эми Берг, Керри Гловер
В ролях: Тимоти Хаттон, Джина Беллман, Кристиан Кэйн, Бэт Рисграф, Элдис Ходж, Джери Райан, Марк Шеппард
Описание:
Нейт Форд бывший следователь страховой компании возглавляет команду в которую входят: компьютерный мошенник Хардисон, воровка и вообще безбашенная особа Паркер, актриса и мошенница Софи и специалист широкого профиля Эллиот. Эта команда помогает людям пострадавшим от рук сильных мира сего, а попросту — воров.

Season 4, Episode 1: The Long Way Down Job / Дело о длинном спуске
Season 4, Episode 2: The 10 Li'l Grifters Job / Дело "Десять нахалят"
Season 4, Episode 3: The 15 Minutes Job / Дело пятнадцати минут
Season 4, Episode 4: The Van Gogh Job / Дело о Ван Гоге
Season 4, Episode 5: The Hot Potato Job / Дело о горячей картошке
Season 4, Episode 6: The Carnival Job / Дело о ярмарке
Season 4, Episode 7: The Grave Danger Job / Смертельно опасное дело
Season 4, Episode 8: The Boiler Room Job / Дело о биржевых махинациях
Season 4, Episode 9: The Cross-My-Heart Job / Дело о клятве
Season 4, Episode 10: The Queen's Gambit Job / Ферзевый гамбит
Season 4, Episode 11: The Experimental Job / Дело об эксперименте
Season 4, Episode 12: The Office Job / Дело об офисе
Season 4, Episode 13: The Girl's Night Out Job / Дело о вечере для девочек
Season 4, Episode 14: The Guy's Night Out Job / Дело о вечере для мальчиков
Season 4, Episode 15: The Lonely Hearts Job / Дело об одиноких сердцах
Season 4, Episode 16: The Gold Job / Дело о золоте
Season 4, Episode 17: The Radio Job / Дело о радио
Season 4, Episode 18: The Last Dam Job / Дело о дамбе
Тех. информация:

Формат: MP4 PSP AVC
Кодек видео: H.264
Кодек аудио: AAC
Видео: 480x272 (16:9), 23.976 fps, AVC, H.264, ~ 608 kbps avg, 0.194 bit/pixel
Аудио: Russian 48 kHz, AAC-LC, 2/0 (L,R) ch, ABR, ~128 kbps

General
Complete name : E:\Ripped_PSP\Воздействие (Leverage)\Воздействие (Leverage, 4 сезон)\Leverage.s04e01.webdll.rus.mp4
Format : MPEG-4
Format profile : Base Media
Codec ID : isom
File size : 224 MiB
Duration : 42mn 16s
Overall bit rate : 740 Kbps
Encoded date : UTC 2011-07-01 03:57:32
Tagged date : UTC 2011-07-01 03:57:32

Video
ID : 1
Format : AVC
Format/Info : Advanced Video Codec
Format profile : <a href="mailto:Main@L3.0" class="postLink">Main@L3.0</a>
Format settings, CABAC : Yes
Format settings, ReFrames : 3 frames
Codec ID : avc1
Codec ID/Info : Advanced Video Coding
Duration : 42mn 16s
Bit rate mode : Variable
Bit rate : 608 Kbps
Maximum bit rate : 2 263 Kbps
Width : 480 pixels
Height : 272 pixels
Display aspect ratio : 16:9
Frame rate mode : Constant
Frame rate : 23.976 fps
Color space : YUV
Chroma subsampling : 4:2:0
Bit depth : 8 bits
Scan type : Progressive
Bits/(Pixel*Frame) : 0.194
Stream size : 184 MiB (82%)
Title : Imported with GPAC 0.4.6-DEV (internal rev. 7)
Writing library : x264 core 108 r1790 8eaf8a6
Encoding settings : cabac=1 / ref=3 / deblock=1:-1:0 / analyse=0x1:0x131 / me=umh / subme=7 / psy=1 / psy_rd=1.00:0.20 / mixed_ref=1 / me_range=16 / chroma_me=1 / trellis=2 / 8x8dct=0 / cqm=0 / deadzone=21,11 / fast_pskip=0 / chroma_qp_offset=-3 / threads=3 / sliced_threads=0 / nr=0 / decimate=0 / interlaced=0 / constrained_intra=0 / bframes=3 / b_pyramid=0 / b_adapt=2 / b_bias=0 / direct=3 / weightb=1 / open_gop=0 / weightp=2 / keyint=250 / keyint_min=23 / scenecut=40 / intra_refresh=0 / rc_lookahead=60 / rc=2pass / mbtree=1 / bitrate=608 / ratetol=1.0 / qcomp=0.60 / qpmin=10 / qpmax=51 / qpstep=4 / cplxblur=20.0 / qblur=0.5 / ip_ratio=1.40 / aq=1:1.00
Encoded date : UTC 2011-07-01 03:57:32
Tagged date : UTC 2011-07-01 03:57:42

Audio
ID : 2
Format : AAC
Format/Info : Advanced Audio Codec
Format profile : LC
Codec ID : 40
Duration : 42mn 16s
Bit rate mode : Variable
Bit rate : 128 Kbps
Maximum bit rate : 146 Kbps
Channel(s) : 2 channels
Channel positions : Front: L R
Sampling rate : 48.0 KHz
Compression mode : Lossy
Stream size : 38.7 MiB (17%)
Encoded date : UTC 2011-07-01 03:57:41
Tagged date : UTC 2011-07-01 03:57:42


Трекер:  [ 14-Июл-2012 13:49 ]

  

Скачать .torrent

Размер .torrent файла 21 KB


Размер: 3.94 GB
Хэш (hash) релиза: d3333eb212b424dad20988d8c80ec352e0b8342c
Подписка на обновления:

Еще никто не оставлял запись к записи скачать торрент [SERIAL] Воздействие Leverage . Будь первым!

!Обратная связь