Скачать через торрент [SERIAL] Частная практика Private Practice Фильм бесплатно в хорошем качестве torrent

Скачивайте на UnionPeer.org фильмы через торрент без регистрации. Новинки кино в хорошем качестве через торрент. На UnionPeer.org можно скачать через торрент фильмы 2014 и 2015 годов. Самые новые фильмы.

Скачать торрент [SERIAL] Частная практика Private Practice бесплатно через .torrent фильм мультфильм сериал

Если у вас наблюдаются проблемы со скриншотами, переходом по ссылками, скачиванием торрентов - проблемы в блокировщике рекламы AdBlock. #хорошегоДня!


Статистика раздачи
Размер:  16.76 GB   |    Зарегистрирован:  5 лет 4 месяца   |    .torrent скачан:  77 раз   |   
Раздают:  1  
   
Загрузка...
 
Автор Сообщение

Galfimbul

avatar Galfimbul




Частная практика
«A new start on life.»
Оригинальное название: Private Practice
Год выпуска: 2007 - 2011
Страна: США
Студия: ''ABC Studios / The Mark Gordon Company / ShondaLand''
Номер сезона: 1 - 4 сезон (9 + 22 + 23 + 22)
Статус сериала: идет показ 5 сезона
Жанр: драма, мелодрама, медицина
Продолжительность: ~ 44 мин эпизод
Перевод:1 - 4 сезон: профессиональный, многоголосый (закадровый)
Режиссер: Марк Тинкер, Карен Гавиола, Джеффри Мэлман
Автор идеи: Шонда Раймс, Криста Вернофф, Барби Клигман
Продюссер: Марк Тинкер, Скотт Принц, Фред Эйнесман
В ролях: Кейт Уолш, Тим Дейли, Пол Адельштейн, КаДи Стрикленд, Тэй Диггз, Эми Бреннеман, Одра МакДональд, Брайан Бенбен, Крис Лоуэлл, Катерина Скорсоне
Описание:
Cпин-офф сериала "Анатомия страсти" ( Grey's anatomy ), в котором главной героиней выступит доктор Эддисон Форбс Монтгомери, переехавшая в Санта-Монику и начавшая новую жизнь. Эддисон – известный хирург. Оставив работу в Сиэттле, рухнувший брак с Дереком Шепардом и неудавшиеся отношения с Марком Слоаном, она переезжает в Лос-Анджелес, в более солнечный климат и к более счастливым возможностям. Эддисон вновь встречается с друзьями по медицинской школе, Наоми и Сэмом Беннет, присоединяясь к работе в их шикарном Oceanside Wellness Center. Наоми – акушерка и специалист по гормонам, главный владелец клиники, а Сэм – терапевт и совладелец, чьи книги-самоучители принесли ему славу «медицинского гуру обычных людей». Недавно развелись, но вынуждены сосуществовать ради дочери Майи и общей практики, однако их отношения едва ли назовешь дружескими. Доктор Купер Фридман – прекрасный педиатр, но в личной жизни терпит неудачу за неудачей, притягивая «не тот тип женщин». Свидания через Интернет заканчивались для него плачевно. Утешение и совет Купер ищет у своей подруги, психиатра Вайолет Тернер, не более удачливой в сердечных делах. Доктор Пит Уайлдер – специалист по альтернативной медицине. Привлекательный и уверенный в себе, Пит может привлечь любую женщину и уже привлек – Эддисон. Несмотря на влечение, уверенность и даже самоуверенность Пита, он все еще не может оправиться от трагической смерти его жены восемь лет назад, поскольку с тех пор у него так и не было серьезных отношений. Но вместе с Эддисон может попробовать начать жизнь сначала и он.

Season 1, Episode 1: In Which We Meet Addison, a Nice Girl from Somewhere Else
Season 1, Episode 2: In Which Sam Receives an Unexpected Visitor...
Season 1, Episode 3: In Which Addison Finds the Magic
Season 1, Episode 4: In Which Addison Has a Very Casual Get Together
Season 1, Episode 5: In Which Addison Finds a Showerhead
Season 1, Episode 6: In Which Charlotte Goes Down the Rabbit Hole
Season 1, Episode 7: In Which Sam Gets Taken for a Ride
Season 1, Episode 8: In Which Cooper Finds a Port in His Storm
Season 1, Episode 9: In Which Dell Finds His Fight
Season 2, Episode 1: A Family Thing
Season 2, Episode 2: Equal & Opposite
Season 2, Episode 3: Nothing to Talk About
Season 2, Episode 4: Past Tense
Season 2, Episode 5: Let It Go
Season 2, Episode 6: Serving Two Masters
Season 2, Episode 7: Tempting Faith
Season 2, Episode 8: Crime and Punishment
Season 2, Episode 9: Know When to Fold
Season 2, Episode 10: Worlds Apart
Season 2, Episode 11: Contamination
Season 2, Episode 12: Homeward Bound
Season 2, Episode 13: Nothing to Fear
Season 2, Episode 14: Second Chances
Season 2, Episode 15: Acceptance
Season 2, Episode 16: Ex-Life
Season 2, Episode 17: Wait and See
Season 2, Episode 18: Finishing
Season 2, Episode 19: What Women Want
Season 2, Episode 20: Do the Right Thing
Season 2, Episode 21: What You Do for Love
Season 2, Episode 22: Yours, Mine & Ours
Season 3, Episode 1: A Death in the Family
Season 3, Episode 2: The Way We Were
Season 3, Episode 3: Right Here, Right Now
Season 3, Episode 4: Pushing the Limits
Season 3, Episode 5: Strange Bedfellows
Season 3, Episode 6: Slip Slidin' Away
Season 3, Episode 7: The Hard Part
Season 3, Episode 8: Sins of the Father
Season 3, Episode 9: The Parent Trap
Season 3, Episode 10: Blowups
Season 3, Episode 11: Another Second Chance
Season 3, Episode 12: Best Laid Plans
Season 3, Episode 13: Shotgun
Season 3, Episode 14: Love Bites
Season 3, Episode 15: 'Til Death Do Us Part
Season 3, Episode 16: Fear of Flying
Season 3, Episode 17: Triangles
Season 3, Episode 18: Pulling the Plug
Season 3, Episode 19: Eyes Wide Open
Season 3, Episode 20: Second Choices
Season 3, Episode 21: War
Season 3, Episode 22: In the Name of Love
Season 3, Episode 23: The End of a Beautiful Friendship
Season 4, Episode 1: Take Two
Season 4, Episode 2: Short Cuts
Season 4, Episode 3: Playing God
Season 4, Episode 4: A Better Place to Be
Season 4, Episode 5: In or Out
Season 4, Episode 6: All in the Family
Season 4, Episode 7: Did You Hear What Happened to Charlotte King?
Season 4, Episode 8: What Happens Next
Season 4, Episode 9: Can't Find My Way Back Home
Season 4, Episode 10: Just Lose It
Season 4, Episode 11: If You Don't Know Me by Now
Season 4, Episode 12: Heaven Can Wait
Season 4, Episode 13: Blind Love
Season 4, Episode 14: Home Again
Season 4, Episode 15: Two Steps Back
Season 4, Episode 16: Love and Lies
Season 4, Episode 17: A Step Too Far
Season 4, Episode 18: The Hardest Part
Season 4, Episode 19: What We Have Here...
Season 4, Episode 20: Something Old, Something New
Season 4, Episode 21: God Bless the Child
Season 4, Episode 22: ...To Change the Things I Can

Тех. информация:
Качество: HDTVRip, DVDRip, WEB-DLRip
Формат: MP4 PSP AVC
Кодек видео: H.264
Кодек аудио: AAC
Видео: 480x272 (16:9), 23.976 fps, AVC, H.264, ~ 608 kbps avg, 0.194 bit/pixel
Аудио: Russian 48 kHz, AAC-LC, 2/0 (L,R) ch, ABR, ~128 kbps

General
Complete name : F:\Private practice\Private practice (1 season)\private.practice.s01e01.hdtv.rus.mp4
Format : MPEG-4
Format profile : Base Media
Codec ID : isom
File size : 224 MiB
Duration : 42mn 22s
Overall bit rate : 740 Kbps
Encoded date : UTC 2012-03-05 21:43:51
Tagged date : UTC 2012-03-05 21:43:51

Video
ID : 1
Format : AVC
Format/Info : Advanced Video Codec
Format profile : <a href="mailto:Main@L3.0" class="postLink">Main@L3.0</a>
Format settings, CABAC : Yes
Format settings, ReFrames : 3 frames
Codec ID : avc1
Codec ID/Info : Advanced Video Coding
Duration : 42mn 22s
Bit rate mode : Variable
Bit rate : 608 Kbps
Maximum bit rate : 2 393 Kbps
Width : 480 pixels
Height : 272 pixels
Display aspect ratio : 16:9
Frame rate mode : Constant
Frame rate : 23.976 fps
Color space : YUV
Chroma subsampling : 4:2:0
Bit depth : 8 bits
Scan type : Progressive
Bits/(Pixel*Frame) : 0.194
Stream size : 184 MiB (82%)
Writing library : x264 core 119 r2106 07efeb4
Encoding settings : cabac=1 / ref=3 / deblock=1:-1:0 / analyse=0x1:0x131 / me=umh / subme=7 / psy=1 / psy_rd=1.00:0.20 / mixed_ref=1 / me_range=16 / chroma_me=1 / trellis=2 / 8x8dct=0 / cqm=0 / deadzone=21,11 / fast_pskip=0 / chroma_qp_offset=-3 / threads=6 / sliced_threads=0 / nr=0 / decimate=0 / interlaced=0 / bluray_compat=0 / constrained_intra=0 / bframes=3 / b_pyramid=0 / b_adapt=2 / b_bias=0 / direct=3 / weightb=1 / open_gop=0 / weightp=2 / keyint=250 / keyint_min=23 / scenecut=40 / intra_refresh=0 / rc_lookahead=60 / rc=2pass / mbtree=1 / bitrate=608 / ratetol=1.0 / qcomp=0.60 / qpmin=0 / qpmax=69 / qpstep=4 / cplxblur=20.0 / qblur=0.5 / ip_ratio=1.40 / aq=1:1.00
Encoded date : UTC 2012-03-05 21:43:51
Tagged date : UTC 2012-03-05 21:43:56

Audio
ID : 2
Format : AAC
Format/Info : Advanced Audio Codec
Format profile : LC
Codec ID : 40
Duration : 42mn 22s
Bit rate mode : Variable
Bit rate : 128 Kbps
Maximum bit rate : 144 Kbps
Channel(s) : 2 channels
Channel positions : Front: L R
Sampling rate : 48.0 KHz
Compression mode : Lossy
Stream size : 38.8 MiB (17%)
Encoded date : UTC 2012-03-05 21:43:55
Tagged date : UTC 2012-03-05 21:43:56
General
Complete name : F:\Private practice (2 season)\private.practice.s02e01.dvdrip.rus.mp4
Format : MPEG-4
Format profile : Base Media
Codec ID : isom
File size : 228 MiB
Duration : 43mn 8s
Overall bit rate : 740 Kbps
Encoded date : UTC 2012-03-06 02:47:05
Tagged date : UTC 2012-03-06 02:47:05

Video
ID : 1
Format : AVC
Format/Info : Advanced Video Codec
Format profile : <a href="mailto:Main@L3.0" class="postLink">Main@L3.0</a>
Format settings, CABAC : Yes
Format settings, ReFrames : 3 frames
Codec ID : avc1
Codec ID/Info : Advanced Video Coding
Duration : 43mn 8s
Bit rate mode : Variable
Bit rate : 608 Kbps
Maximum bit rate : 2 253 Kbps
Width : 480 pixels
Height : 272 pixels
Display aspect ratio : 16:9
Frame rate mode : Constant
Frame rate : 23.976 fps
Color space : YUV
Chroma subsampling : 4:2:0
Bit depth : 8 bits
Scan type : Progressive
Bits/(Pixel*Frame) : 0.194
Stream size : 188 MiB (82%)
Writing library : x264 core 119 r2106 07efeb4
Encoding settings : cabac=1 / ref=3 / deblock=1:-1:0 / analyse=0x1:0x131 / me=umh / subme=7 / psy=1 / psy_rd=1.00:0.20 / mixed_ref=1 / me_range=16 / chroma_me=1 / trellis=2 / 8x8dct=0 / cqm=0 / deadzone=21,11 / fast_pskip=0 / chroma_qp_offset=-3 / threads=6 / sliced_threads=0 / nr=0 / decimate=0 / interlaced=0 / bluray_compat=0 / constrained_intra=0 / bframes=3 / b_pyramid=0 / b_adapt=2 / b_bias=0 / direct=3 / weightb=1 / open_gop=0 / weightp=2 / keyint=250 / keyint_min=23 / scenecut=40 / intra_refresh=0 / rc_lookahead=60 / rc=2pass / mbtree=1 / bitrate=608 / ratetol=1.0 / qcomp=0.60 / qpmin=0 / qpmax=69 / qpstep=4 / cplxblur=20.0 / qblur=0.5 / ip_ratio=1.40 / aq=1:1.00
Encoded date : UTC 2012-03-06 02:47:05
Tagged date : UTC 2012-03-06 02:47:10

Audio
ID : 2
Format : AAC
Format/Info : Advanced Audio Codec
Format profile : LC
Codec ID : 40
Duration : 43mn 5s
Bit rate mode : Variable
Bit rate : 128 Kbps
Maximum bit rate : 151 Kbps
Channel(s) : 2 channels
Channel positions : Front: L R
Sampling rate : 48.0 KHz
Compression mode : Lossy
Stream size : 39.4 MiB (17%)
Encoded date : UTC 2012-03-06 02:47:09
Tagged date : UTC 2012-03-06 02:47:10
General
Complete name : F:\Private practice\Private practice (3 season)\Private.practice.s03e01.webdl.rus.mp4
Format : MPEG-4
Format profile : Base Media
Codec ID : isom
File size : 221 MiB
Duration : 41mn 43s
Overall bit rate : 740 Kbps
Encoded date : UTC 2012-03-06 09:04:17
Tagged date : UTC 2012-03-06 09:04:17

Video
ID : 1
Format : AVC
Format/Info : Advanced Video Codec
Format profile : <a href="mailto:Main@L3.0" class="postLink">Main@L3.0</a>
Format settings, CABAC : Yes
Format settings, ReFrames : 3 frames
Codec ID : avc1
Codec ID/Info : Advanced Video Coding
Duration : 41mn 43s
Bit rate mode : Variable
Bit rate : 608 Kbps
Maximum bit rate : 1 795 Kbps
Width : 480 pixels
Height : 272 pixels
Display aspect ratio : 16:9
Frame rate mode : Constant
Frame rate : 25.000 fps
Color space : YUV
Chroma subsampling : 4:2:0
Bit depth : 8 bits
Scan type : Progressive
Bits/(Pixel*Frame) : 0.186
Stream size : 181 MiB (82%)
Writing library : x264 core 119 r2106 07efeb4
Encoding settings : cabac=1 / ref=3 / deblock=1:-1:0 / analyse=0x1:0x131 / me=umh / subme=7 / psy=1 / psy_rd=1.00:0.20 / mixed_ref=1 / me_range=16 / chroma_me=1 / trellis=2 / 8x8dct=0 / cqm=0 / deadzone=21,11 / fast_pskip=0 / chroma_qp_offset=-3 / threads=6 / sliced_threads=0 / nr=0 / decimate=0 / interlaced=0 / bluray_compat=0 / constrained_intra=0 / bframes=3 / b_pyramid=0 / b_adapt=2 / b_bias=0 / direct=3 / weightb=1 / open_gop=0 / weightp=2 / keyint=250 / keyint_min=25 / scenecut=40 / intra_refresh=0 / rc_lookahead=60 / rc=2pass / mbtree=1 / bitrate=608 / ratetol=1.0 / qcomp=0.60 / qpmin=0 / qpmax=69 / qpstep=4 / cplxblur=20.0 / qblur=0.5 / ip_ratio=1.40 / aq=1:1.00
Encoded date : UTC 2012-03-06 09:04:17
Tagged date : UTC 2012-03-06 09:04:22

Audio
ID : 2
Format : AAC
Format/Info : Advanced Audio Codec
Format profile : LC
Codec ID : 40
Duration : 41mn 43s
Bit rate mode : Variable
Bit rate : 128 Kbps
Maximum bit rate : 150 Kbps
Channel(s) : 2 channels
Channel positions : Front: L R
Sampling rate : 48.0 KHz
Compression mode : Lossy
Stream size : 38.2 MiB (17%)
Encoded date : UTC 2012-03-06 09:04:21
Tagged date : UTC 2012-03-06 09:04:22
General
Complete name : F:\Private practice\Private practice (4 season)\Private.practice.s04e01.web-dl.rus.mp4
Format : MPEG-4
Format profile : Base Media
Codec ID : isom
File size : 230 MiB
Duration : 43mn 29s
Overall bit rate : 740 Kbps
Encoded date : UTC 2012-03-07 09:42:27
Tagged date : UTC 2012-03-07 09:42:27

Video
ID : 1
Format : AVC
Format/Info : Advanced Video Codec
Format profile : <a href="mailto:Main@L3.0" class="postLink">Main@L3.0</a>
Format settings, CABAC : Yes
Format settings, ReFrames : 3 frames
Codec ID : avc1
Codec ID/Info : Advanced Video Coding
Duration : 43mn 29s
Bit rate mode : Variable
Bit rate : 608 Kbps
Maximum bit rate : 2 693 Kbps
Width : 480 pixels
Height : 272 pixels
Display aspect ratio : 16:9
Frame rate mode : Constant
Frame rate : 23.976 fps
Color space : YUV
Chroma subsampling : 4:2:0
Bit depth : 8 bits
Scan type : Progressive
Bits/(Pixel*Frame) : 0.194
Stream size : 189 MiB (82%)
Writing library : x264 core 119 r2106 07efeb4
Encoding settings : cabac=1 / ref=3 / deblock=1:-1:0 / analyse=0x1:0x131 / me=umh / subme=7 / psy=1 / psy_rd=1.00:0.20 / mixed_ref=1 / me_range=16 / chroma_me=1 / trellis=2 / 8x8dct=0 / cqm=0 / deadzone=21,11 / fast_pskip=0 / chroma_qp_offset=-3 / threads=6 / sliced_threads=0 / nr=0 / decimate=0 / interlaced=0 / bluray_compat=0 / constrained_intra=0 / bframes=3 / b_pyramid=0 / b_adapt=2 / b_bias=0 / direct=3 / weightb=1 / open_gop=0 / weightp=2 / keyint=250 / keyint_min=23 / scenecut=40 / intra_refresh=0 / rc_lookahead=60 / rc=2pass / mbtree=1 / bitrate=608 / ratetol=1.0 / qcomp=0.60 / qpmin=0 / qpmax=69 / qpstep=4 / cplxblur=20.0 / qblur=0.5 / ip_ratio=1.40 / aq=1:1.00
Encoded date : UTC 2012-03-07 09:42:27
Tagged date : UTC 2012-03-07 09:42:31

Audio
ID : 2
Format : AAC
Format/Info : Advanced Audio Codec
Format profile : LC
Codec ID : 40
Duration : 43mn 29s
Bit rate mode : Variable
Bit rate : 128 Kbps
Maximum bit rate : 154 Kbps
Channel(s) : 2 channels
Channel positions : Front: L R
Sampling rate : 48.0 KHz
Compression mode : Lossy
Stream size : 39.7 MiB (17%)
Encoded date : UTC 2012-03-07 09:42:30
Tagged date : UTC 2012-03-07 09:42:31


Трекер:  [ 10-Июл-2012 22:25 ]

  

Скачать .torrent

Размер .torrent файла 50 KB


Размер: 16.76 GB
Хэш (hash) релиза: 511916bffdc308b3d0e242a6a980865760ddec24
Подписка на обновления:

Еще никто не оставлял запись к записи скачать торрент [SERIAL] Частная практика Private Practice . Будь первым!

!Обратная связь