Скачать через торрент [SERIAL] Сыны Анархии Sons of Anarchy Фильм бесплатно в хорошем качестве torrent

Скачивайте на UnionPeer.org фильмы через торрент без регистрации. Новинки кино в хорошем качестве через торрент. На UnionPeer.org можно скачать через торрент фильмы 2014 и 2015 годов. Самые новые фильмы.

Скачать торрент [SERIAL] Сыны Анархии Sons of Anarchy бесплатно через .torrent фильм мультфильм сериал

Если у вас наблюдаются проблемы со скриншотами, переходом по ссылками, скачиванием торрентов - проблемы в блокировщике рекламы AdBlock. #хорошегоДня!


Статистика раздачи
Размер:  2.72 GB   |    Зарегистрирован:  5 лет 4 месяца   |    .torrent скачан:  91 раз   |   
Раздают:  1  
   
Загрузка...
 
Автор Сообщение

Galfimbul

avatar Galfimbul



Сыны Анархии / Sons of Anarchy

Название: Сыны Анархии
Оригинальное название: Sons of Anarchy
Год выпуска: 2008
Страна: США
Жанр: драма, криминал
Продолжительность: 46 минут (1-ая серия ~57 минут)
Перевод: профессиональный многоголосый закадровый (LostFilm)
Русские субтитры: нет
Субтитры: отсутствуют
Режиссёр: Стефен Т. Кэй, Гай Ферленд

Описание: «Сыны Анархии» — сериал рассказывает о клубе байкеров, которые пытаются защитить свой городок от наркотиков и влияния из вне, хотя сами грешат торговлей оружия.
Список серий:
01. Пилот (Pilot)
02. Семя (Seeds)
03. Луна-парк (Fun Town)
04. Перебой (Patch Over)
05. Расплата (Giving Back)
06. АК-51 (AK-51)
07. Старые кости (Old Bones)
08. Тяга (The Pull)
09. И ад следовал за ним (Hell Followed)
10. Лучшая половина (Better Half)
11. Стукачок (Capybara)
12. Сон младенцев (The Sleep of Babies)
13. Провидец (The Revelator)

Качество: HDTVRip
Формат: MP4
Видео кодек: H.264
Аудио кодек: AAC
Видео: Video: MPEG4 Video (H264) 480x272 29.97fps 16:9 513 Kbps
Аудио: Audio: AAC 48000Hz stereo 128 Kbps
General
Complete name : J:\PSP\FILM\Сыны Анархии\Сыны Анархии 1 сезон\Sons.Of.Anarchy.S01E05.HD.rus.LostFilm.TV.mp4
Format : MPEG-4
Format profile : Sony PSP
Codec ID : MSNV
File size : 188 MiB
Duration : 40mn 40s
Overall bit rate : 648 Kbps

Video
ID : 1
Format : AVC
Format/Info : Advanced Video Codec
Format profile : <a href="mailto:Main@L2.1" class="postLink">Main@L2.1</a>
Format settings, CABAC : Yes
Format settings, ReFrames : 3 frames
Format settings, GOP : M=4, N=13
Codec ID : avc1
Codec ID/Info : Advanced Video Coding
Duration : 40mn 40s
Bit rate mode : Variable
Bit rate : 514 Kbps
Width : 480 pixels
Height : 272 pixels
Display aspect ratio : 16:9
Frame rate mode : Constant
Frame rate : 29.970 fps
Color space : YUV
Chroma subsampling : 4:2:0
Bit depth : 8 bits
Scan type : Progressive
Bits/(Pixel*Frame) : 0.131
Stream size : 149 MiB (79%)

Audio
ID : 2
Format : AAC
Format/Info : Advanced Audio Codec
Format profile : LC
Codec ID : 40
Duration : 40mn 40s
Bit rate mode : Variable
Bit rate : 128 Kbps
Channel(s) : 2 channels
Channel positions : Front: L R
Sampling rate : 48.0 KHz
Compression mode : Lossy
Stream size : 37.2 MiB (20%)


Трекер:  [ 10-Июл-2012 22:26 ]

  

Скачать .torrent

Размер .torrent файла 15 KB


Размер: 2.72 GB
Хэш (hash) релиза: 06ea626069089bd68c89c52b68c9c77cd9920efc
Подписка на обновления:

Еще никто не оставлял запись к записи скачать торрент [SERIAL] Сыны Анархии Sons of Anarchy . Будь первым!

!Обратная связь