Скачать через торрент [SERIAL4PSP] Сообщество Community Фильм бесплатно в хорошем качестве torrent

Скачивайте на UnionPeer.org фильмы через торрент без регистрации. Новинки кино в хорошем качестве через торрент. На UnionPeer.org можно скачать через торрент фильмы 2014 и 2015 годов. Самые новые фильмы.

Скачать торрент [SERIAL4PSP] Сообщество Community бесплатно через .torrent фильм мультфильм сериал

Если у вас наблюдаются проблемы со скриншотами, переходом по ссылками, скачиванием торрентов - проблемы в блокировщике рекламы AdBlock. #хорошегоДня!


Статистика раздачи
Размер:  2.28 GB   |    Зарегистрирован:  5 лет 1 месяц   |    .torrent скачан:  43 раза   |   
Раздают:  1  
   
Загрузка...
 
Автор Сообщение

Galfimbul

avatar Galfimbul


Сообщество
Оригинальное Название: Community
Год выпуска: 2010
Страна: США
Жанр: Ситком
Кол-во Сезонов: 1
Кол-во Серий: 24
Перевод: Профессиональный (двухголосый, закадровый) - Кубик в Кубе
Режиссер:

Энтони Руссо

В ролях:

Джоэль МакХэйл
Джиллиан Джейкобс
Дэнни Пуди, Ивет Николь Браун
Чеви Чейз
Дональд Гловер
Элисон Бри
Кен Йонг
Эрик Кристиан Олсен
Джим Раш
Описание: Сериал рассказывает о студенческом сообществе, которое состоит из школьных лузеров, недавно разведенных домохозяек и пожилых людей, старающихся сохранить трезвый ум.
1. Anthropology
2. Accounting for Lawyers
3. Introduction to Film
4. Basic Rocket Science
5. Messianic Myths and Ancient Peoples
6. Epidemiology
7. Aerodynamics of Gender
8. Cooperative Calligraphy
9. Conspiracy Theories and Interior Design
10. Mixology Certification
11. Abed's Uncontrollable Christmas
12. Asian Population Studies
13. Celebrity Pharmacology
14. Advanced Dungeons & Dragons
15. Early 21st Century Romanticism
16. Intermediate Documentary Filmmaking
17. Intro to Political Science
18. Custody Law and Eastern European Diplomacy
19. Critical Film Studies
20. Competitive Wine Tasting
21. Paradigms of Human Memory
22. Applied Anthropology and Culinary Arts
23. A Fist Full of Paintballs
24. For a Few Paintballs More

Качество: HDTVRip
Формат: MP4
Видео кодек: H.264
Аудио кодек: AAC
Видео: 480x272 (512 Кбит/сек)
Аудио: 48000Hz stereo 128Kbps
Формат: MPEG-4
Профиль формата: Base Media
Идентификатор кодека: isom
Общий поток: 649 Кбит/сек

Видео
Формат: AVC
Формат/Информация: Advanced Video Codec
Профиль формата: <a href="mailto:Main@L3.0" class="postLink">Main@L3.0</a>
Параметр CABAC формата: Да
Параметр ReFrames формата: 2 кадры
Идентификатор кодека: avc1
Идентификатор кодека/Информация: Advanced Video Coding
Продолжительность : 21 м.
Вид битрейта: Переменный
Битрейт: 512 Кбит/сек
Ширина: 480 пикс.
Высота: 272 пикс.
Соотношение сторон: 16:9
Режим частоты кадров: Постоянный
Частота кадров: 23,976 кадр/сек
Цветовое пространство: YUV
Подвыборка цветности: 4:2:0
Битовая глубина: 8 бит
Тип развёртки: Прогрессивная
Бит/(Пиксели*Кадры): 0.164
Размер потока: 77,9 Мбайт (79%)
Библиотека кодирования: x264 core 113

Аудио
Идентификатор: 2
Формат: AAC
Формат/Информация: Advanced Audio Codec
Профиль формата: LC
Идентификатор кодека: 40
Продолжительность: 21 м.
Вид битрейта: Переменный
Битрейт: 128 Кбит/сек
Канал(ы) : 2 канала(ов)
Расположение каналов : Front: L R
Частота: 48,0 КГц
Метод сжатия: С потерями
Размер потока: 19,3 Мбайт (20%)


ВНИМАНИЕ! Раздача ведется путем добавления новых серий!

Трекер:  [ 10-Июл-2012 22:27 ]

  

Скачать .torrent

Размер .torrent файла 15 KB


Размер: 2.28 GB
Хэш (hash) релиза: 0ccc69b2b48cfcdbc8d955e8e05ceb68b5f08378
Подписка на обновления:

Торренты, похожие на [SERIAL4PSP] Сообщество Community скачать торрент

Форум Название Автор Размер S L Добавлен
Видео для Консолей ·· [SERIAL4PSP] Сообщество / Community (Энтони Руссо)[1 сезон][25 серий][Кубик в Кубе] [2010 г., комедия, HDTVRip] Galfimbul 29423160962.74 GB 0 0 1342260300

13:05

14-Июл-12

Еще никто не оставлял запись к записи скачать торрент [SERIAL4PSP] Сообщество Community . Будь первым!

!Обратная связь