Скачать через торрент [SERIAL4PSP] Говорящая с призраками Ghost Whisperer Фильм бесплатно в хорошем качестве torrent

Скачивайте на UnionPeer.org фильмы через торрент без регистрации. Новинки кино в хорошем качестве через торрент. На UnionPeer.org можно скачать через торрент фильмы 2014 и 2015 годов. Самые новые фильмы.

Скачать торрент [SERIAL4PSP] Говорящая с призраками Ghost Whisperer бесплатно через .torrent фильм мультфильм сериал

Если у вас наблюдаются проблемы со скриншотами, переходом по ссылками, скачиванием торрентов - проблемы в блокировщике рекламы AdBlock. #хорошегоДня!


Статистика раздачи
Размер:  5.25 GB   |    Зарегистрирован:  5 лет 4 месяца   |    .torrent скачан:  52 раза   |   
Раздают:  1  
   
Загрузка...
 
Автор Сообщение

Galfimbul

avatar Galfimbul



Говорящая с призраками
«Мертвые говорят..., и она слушает.»
Оригинальное название: Ghost Whisperer
Год выпуска: 2008-2009
Страна: США
Студия: ''ABC Studios / CBS Television Studios / Touchstone Television''
Номер сезона: 4 сезон (23 эпизода)
Статус сериала: завершен 5 сезон
Жанр: мистика, драма
Продолжительность: ~ 44 мин эпизод
Перевод : профессиональный, многоголосый, закадровый (канал )
Режиссер: Йен Сэндер, Джеймс Чрессантис, Стивен Робмэн
Автор идеи: Джон Грэй, Джой Блейк, Мелисса Блейк
Продюссер: Ким Моусес, Лори МакКарти, П.К. Симондз
В ролях: Дженнифер Лав Хьюитт, Дэвид Конрад, Камрин Менхейм, Кристоф Сандерс, Джейми Кеннеди, Джей Мор
Описание:
Мелинда Гордон только что вышла замуж и открыла собственный антикварный магазин. С виду она такая же, как большинство девушек. Но на самом деле Мелинда обладает редчайшей способностью общаться с духами умерших людей. Девушка использует этот дар, чтобы передавать важную информацию из мира мертвых в мир живых…

Season 4, Episode 1: Firestarter / Источник пожара
Season 4, Episode 2: Big Chills / Возвращение к живым
Season 4, Episode 3: Ghost in the Machine / Призрак из машины
Season 4, Episode 4: Save Our Souls / Спасите наши души
Season 4, Episode 5: Bloodline / Кровное родство
Season 4, Episode 6: Imaginary Friends and Enemies / Воображаемые друзья и враги
Season 4, Episode 7: Threshold / Новое начало
Season 4, Episode 8: Heart & Soul / Сердце и душа
Season 4, Episode 9: Pieces of You / Частички тебя
Season 4, Episode 10: Ball & Chain / Груз цепей
Season 4, Episode 11: Life on the Line / Жизнь на грани
Season 4, Episode 12: This Joint's Haunted / Место встречи призраков
Season 4, Episode 13: Body of Water / Озеро полное трупов
Season 4, Episode 14: Slow Burn / Медленное горение
Season 4, Episode 15: Greek Tragedy / Греческая трагедия
Season 4, Episode 16: Ghost Busted / Одержимый призраками
Season 4, Episode 17: Delusions of Grandview / Введены в заблуждение
Season 4, Episode 18: Leap of Faith / Прыжок веры
Season 4, Episode 19: Thrilled to Death / Трепет перед смертью
Season 4, Episode 20: Stage Fright / Страх сцены
Season 4, Episode 21: Cursed / Проклятая
Season 4, Episode 22: Endless Love / Бесконечная любовь
Season 4, Episode 23: The Book of Changes / Книга изменений
Тех. информация:
Качество: WEB-DLRip
Формат: MP4 PSP AVC
Кодек видео: H.264
Кодек аудио: AAC
Видео: 480x272 (16:9), 23.976 fps, AVC, H.264, ~ 608 kbps avg, 0.194 bit/pixel
Аудио: Russian 48 kHz, AAC-LC, 2/0 (L,R) ch, ABR, ~128 kbps

General
Complete name : E:\Ripped_PSP\Говорящая с призраками (Ghost Whisperer, 4 season)\ghost_whisperer.s04e01.webdlrip.rus.mp4
Format : MPEG-4
Format profile : Base Media
Codec ID : isom
File size : 235 MiB
Duration : 44mn 25s
Overall bit rate : 740 Kbps
Encoded date : UTC 2011-01-15 06:54:38
Tagged date : UTC 2011-01-15 06:54:38

Video
ID : 1
Format : AVC
Format/Info : Advanced Video Codec
Format profile : <a href="mailto:Main@L3.0" class="postLink">Main@L3.0</a>
Format settings, CABAC : Yes
Format settings, ReFrames : 3 frames
Format settings, GOP : M=1, N=16
Codec ID : avc1
Codec ID/Info : Advanced Video Coding
Duration : 44mn 25s
Bit rate mode : Variable
Bit rate : 608 Kbps
Maximum bit rate : 2 452 Kbps
Width : 480 pixels
Height : 272 pixels
Display aspect ratio : 16:9
Frame rate mode : Constant
Frame rate : 23.976 fps
Color space : YUV
Chroma subsampling : 4:2:0
Bit depth : 8 bits
Scan type : Progressive
Bits/(Pixel*Frame) : 0.194
Stream size : 193 MiB (82%)
Title : Imported with GPAC 0.4.6-DEV (internal rev. 7)
Writing library : x264 core 108 r1790 8eaf8a6
Encoding settings : cabac=1 / ref=3 / deblock=1:-1:0 / analyse=0x1:0x131 / me=umh / subme=7 / psy=1 / psy_rd=1.00:0.20 / mixed_ref=1 / me_range=16 / chroma_me=1 / trellis=2 / 8x8dct=0 / cqm=0 / deadzone=21,11 / fast_pskip=0 / chroma_qp_offset=-3 / threads=3 / sliced_threads=0 / nr=0 / decimate=0 / interlaced=0 / constrained_intra=0 / bframes=3 / b_pyramid=0 / b_adapt=2 / b_bias=0 / direct=3 / weightb=1 / open_gop=0 / weightp=2 / keyint=250 / keyint_min=23 / scenecut=40 / intra_refresh=0 / rc_lookahead=60 / rc=2pass / mbtree=1 / bitrate=608 / ratetol=1.0 / qcomp=0.60 / qpmin=10 / qpmax=51 / qpstep=4 / cplxblur=20.0 / qblur=0.5 / ip_ratio=1.40 / aq=1:1.00
Encoded date : UTC 2011-01-15 06:54:38
Tagged date : UTC 2011-01-15 06:54:54

Audio
ID : 2
Format : AAC
Format/Info : Advanced Audio Codec
Format version : Version 4
Format profile : LC
Format settings, SBR : No
Codec ID : 40
Duration : 44mn 25s
Bit rate mode : Variable
Bit rate : 128 Kbps
Maximum bit rate : 153 Kbps
Channel(s) : 2 channels
Channel positions : Front: L R
Sampling rate : 48.0 KHz
Compression mode : Lossy
Stream size : 40.6 MiB (17%)
Encoded date : UTC 2011-01-15 06:54:52
Tagged date : UTC 2011-01-15 06:54:54


Трекер:  [ 10-Июл-2012 19:17 ]

  

Скачать .torrent

Размер .torrent файла 28 KB


Размер: 5.25 GB
Хэш (hash) релиза: 06a35eb213fe311ddb5f531a9b040903c6c0df8e
Подписка на обновления:

Еще никто не оставлял запись к записи скачать торрент [SERIAL4PSP] Говорящая с призраками Ghost Whisperer . Будь первым!

!Обратная связь