Скачать через торрент [SERIAL] Кости Bones Фильм бесплатно в хорошем качестве torrent

Скачивайте на UnionPeer.org фильмы через торрент без регистрации. Новинки кино в хорошем качестве через торрент. На UnionPeer.org можно скачать через торрент фильмы 2014 и 2015 годов. Самые новые фильмы.

Скачать торрент [SERIAL] Кости Bones бесплатно через .torrent фильм мультфильм сериал

Если у вас наблюдаются проблемы со скриншотами, переходом по ссылками, скачиванием торрентов - проблемы в блокировщике рекламы AdBlock. #хорошегоДня!


Статистика раздачи
Размер:  4.91 GB   |    Зарегистрирован:  5 лет 3 месяца   |    .torrent скачан:  43 раза   |   
Раздают:  1  
   
Загрузка...
 
Автор Сообщение

Galfimbul

avatar Galfimbul



Кости
Оригинальное название: Bones
Год выпуска: 2009-2010
Страна: США
Студия: ''20th Century Fox Television / Far Field Productions''
Номер сезона: 5 сезон (22 эпизода)
Статус сериала: съёмки продолжаются
Жанр: мелодрама, драма, криминал, детектив
Продолжительность: ~ 45 мин эпизод
Перевод : профессиональный дубляж (канал )
Режиссер: Аллан Крекер, Тони Уормби, Сэнфорд Букстэйвер, Грег Яйтанес
Автор идеи: Харт Хэнсон
Продюссер: Жан Девитт, Скотт Уильямс, Дэвид Бореаназ
В ролях: Эмили Дешанель, Дэвид Бориназ, Михаэла Конлин, Эрик Миллиган, Т.Дж. Тайн, Тамара Тэйлор, Джонатан Адамс и др.
Голоса дубляжа: Лариса Некипелова, Александр Быков, Людмила Гнилова, Борис Токарев, Прохор Чеховской, Игорь Тарадайкин, Наталья Гурзо
Описание:
Доктор Темперанс Бреннан - высококвалифицированный судебный антрополог, пишущая романы. Особая экспертиза Бреннан заключается в ее странной способности читать ключи, оставленные в костях жертвы. Бреннан часто оказывается в команде со специальным агентом Сили Бутом из отдела по расследованию убийств ФБР. Бывший армейский снайпер Бут не доверяет науке и верит, что ключ к расследованию преступлений лежит в получении правды от все еще живых свидетелей и подозреваемых через надежные старомодные следственные действия. Бреннан и Бут часто сталкиваются и профессионально и лично, но пока искра отношений между ними загорается только в последнем романе Бреннан...

Season 5, Episode 1: Harbingers in the Fountain / Предвестники в фонтане
Season 5, Episode 2: The Bond in the Boot / Бонд в багажнике
Season 5, Episode 3: The Plain in the Prodigy / Обычное в вундеркинде
Season 5, Episode 4: The Beautiful Day in the Neighborhood / Прекрасный день в округе
Season 5, Episode 5: A Night at the Bones Museum / Ночь в музее костей
Season 5, Episode 6: Tough Man in the Tender Chicken / Жесткий человек в мягкой курице
Season 5, Episode 7: The Dwarf in the Dirt / Гном в грязи
Season 5, Episode 8: The Foot in the Foreclosure / Нога в заложенном имуществе
Season 5, Episode 9: The Gamer in the Grease / Игрок в масле
Season 5, Episode 10: The Goop on the Girl / Девушка в грязи
Season 5, Episode 11: The X in the File / Секрет в материалах
Season 5, Episode 12: The Proof in the Pudding / Доказательство в пудинге
Season 5, Episode 13: The Dentist in the Ditch / Дантист в окопе
Season 5, Episode 14: The Devil in the Details / Дьявол в деталях
Season 5, Episode 15: Bones on the Blue Line / Кости на голубой линии
Season 5, Episode 16: The Parts in the Sum of the Whole / Слагаемые в общей сумме
Season 5, Episode 17: The Death of the Queen Bee / Смерть пчелиной матки
Season 5, Episode 18: The Predator in the Pool / Хищник в бассейне
Season 5, Episode 19: The Rocker in the Rinse Cycle / Рокер в химчистке
Season 5, Episode 20: The Witch in the Wardrobe / Ведьма в шкафу
Season 5, Episode 21: The Boy with the Answer / Мальчик с ответом
Season 5, Episode 22: The Beginning in the End / Начало в конце
Тех. информация:
Источник: WEB-DL, HD, 720p
Качество: WEB-DLRip
Формат: MP4 PSP AVC
Кодек видео: H.264
Кодек аудио: AAC
Видео: 480x272 (16:9), 23.976 fps, AVC, H.264, ~ 608 kbps avg, 0.194 bit/pixel
Аудио: Russian 48 kHz, AAC-LC, 2/0 (L,R) ch, ABR, ~128 kbps

General
Complete name : J:\Ripped_PSP\Кости (Bones, 5 season)\bones.s05e01.webdl.rus.mp4
Format : MPEG-4
Format profile : Base Media
Codec ID : isom
File size : 231 MiB
Duration : 44mn 2s
Overall bit rate : 734 Kbps
Encoded date : UTC 2010-10-24 10:40:30
Tagged date : UTC 2010-10-24 10:40:30
Encoding by: Gambit

Video
ID : 1
Format : AVC
Format/Info : Advanced Video Codec
Format profile : <a href="mailto:Main@L3.0" class="postLink">Main@L3.0</a>
Format settings, CABAC : Yes
Format settings, ReFrames : 2 frames
Codec ID : avc1
Codec ID/Info : Advanced Video Coding
Duration : 44mn 2s
Bit rate mode : Variable
Bit rate : 608 Kbps
Maximum bit rate : 2 147 Kbps
Width : 480 pixels
Height : 272 pixels
Display aspect ratio : 16:9
Frame rate mode : Constant
Frame rate : 23.976 fps
Color space : YUV
Chroma subsampling : 4:2:0
Bit depth : 8 bits
Scan type : Progressive
Bits/(Pixel*Frame) : 0.194
Stream size : 189 MiB (82%)
Writing library : x264 core 86 r1442M 781d300
Encoding settings : cabac=1 / ref=2 / deblock=1:0:0 / analyse=0x1:0x131 / me=hex / subme=7 / psy=1 / psy_rd=1.00:0.00 / mixed_ref=1 / me_range=16 / chroma_me=1 / trellis=1 / 8x8dct=0 / cqm=0 / deadzone=21,11 / fast_pskip=1 / chroma_qp_offset=-2 / threads=2 / sliced_threads=0 / nr=0 / decimate=1 / interlaced=0 / constrained_intra=0 / bframes=3 / b_pyramid=0 / b_adapt=2 / b_bias=0 / direct=3 / wpredb=1 / wpredp=2 / keyint=230 / keyint_min=23 / scenecut=40 / intra_refresh=0 / rc_lookahead=40 / rc=cbr / mbtree=1 / bitrate=608 / ratetol=0.2 / qcomp=0.60 / qpmin=10 / qpmax=51 / qpstep=4 / vbv_maxrate=2000 / vbv_bufsize=2000 / ip_ratio=1.41 / aq=1:1.00 / pulldown=0 / nal_hrd=none
Language : English
Tagged date : UTC 2010-10-24 10:40:46

Audio
ID : 2
Format : AAC
Format/Info : Advanced Audio Codec
Format version : Version 4
Format profile : LC
Format settings, SBR : No
Codec ID : 40
Duration : 44mn 2s
Bit rate mode : Variable
Bit rate : 129 Kbps
Maximum bit rate : 163 Kbps
Channel(s) : 2 channels
Channel positions : Front: L R
Sampling rate : 48.0 KHz
Stream size : 40.6 MiB (18%)
Encoded date : UTC 2010-10-24 10:40:44
Tagged date : UTC 2010-10-24 10:40:46


Трекер:  [ 10-Июл-2012 19:17 ]

  

Скачать .torrent

Размер .torrent файла 26 KB


Размер: 4.91 GB
Хэш (hash) релиза: dc4bf152a340be093c364a443c68c37dead470ed
Подписка на обновления:

Еще никто не оставлял запись к записи скачать торрент [SERIAL] Кости Bones . Будь первым!

!Обратная связь